2ちゃんねる ★スマホ版★ ■掲示板に戻る■ 全部 1- 最新50  

■ このスレッドは過去ログ倉庫に格納されています

モンスターファーム1-5の円盤石スレ

1 :名無しさん@非公式ガイド:2006/05/22(月) 13:03:10 ID:2W67oHLe
>【家庭用ゲーム】PS版モンスターファーム 16匹目
>919 名前:なまえをいれてください[sage] 投稿日:2006/03/27(月) 11:53:49 ID:qcQcMulv
>ちょっとした発見をしたんだが
>CD-Rに何か書き込んで再生して例えばライガー種が出たとすると
>そのCDに容量の小さいものを書き込んでまた再生するとSUBが違うライガーが出るんだよ
>で、それを続けていくといつかMAINが変わるんだ。例えばプラント。
>で、同じように書き込んで再生するのを繰り返していくとSUBが違うプラントが
>続々出てくるんだ。
>いや、それだけなんだけどね。
>容量が小さすぎると何も変わらないから注意。500KB〜1MBぐらいがいい。
>大きいものを書き込むといきなりMAINが変わる。
>いつかレアモンや技が覚えてるモンスターが出る要素発見できないものかね。

>ついでに聞きたいんですが、CD再生したピクシー×ハムが最初からワ・ツー覚えてるのはデフォ?
この書き込みから始まった創作CD作戦は
経過1ヶ月にして大きな成果を得た。

これはモンスターファーム2である。

残りのシリーズにおいても試みてみるためのスレッドです。

2 :名無しさん@非公式ガイド:2006/05/22(月) 13:24:32 ID:2W67oHLe
・方法について
無料のCDライティングソフトなどで音楽CDを作成するのだが
これには
・WAVファイル
・無料のライティングソフト(CDマニピュレータなど)
・CD−Rと書き込めるドライブ
が必要になります。

3 :名無しさん@非公式ガイド:2006/05/22(月) 13:35:47 ID:EEWiTZhC
出せたレアモンのサイト貼らないのか?
既出CD解析しても意味無いし

4 :名無しさん@非公式ガイド:2006/05/22(月) 13:40:51 ID:2W67oHLe
許可もらってなーい。けどおk?

5 :名無しさん@非公式ガイド:2006/05/22(月) 15:27:49 ID:hQLWpaoK
既出レアモンまとめ
ttp://limanmegalopolis.org/text/mf/mf2/cdimage.html

許可はまぁ、気にしなくてもよいですよ。>>4

6 :名無しさん@非公式ガイド:2006/05/22(月) 15:35:07 ID:2W67oHLe
ムー2種類あるようだが
出るのか?

あと前に
1にトライすると言う人がいたようだから
俺は3から始める。

7 :名無しさん@非公式ガイド:2006/05/22(月) 16:48:22 ID:qvc3SJ/b
結構マニアックなんだけど
3で初期から、かんが鋭いついてるモンスターのCDわかる?

8 :名無しさん@非公式ガイド:2006/05/22(月) 17:00:39 ID:2W67oHLe
わからない。
まだはじめてないし。

9 :名無しさん@非公式ガイド:2006/05/22(月) 18:15:02 ID:E4wJGXH6
2以外は人口少ないから時間かかるだろうな。

10 :再生ヲタ:2006/05/22(月) 18:27:20 ID:SekFsdb8
こっちはCD-R用スレか?

11 :名無しさん@非公式ガイド:2006/05/22(月) 18:31:52 ID:qvc3SJ/b
それならコロペンドラ、ヘンガー、ゴーレムをオススメ!!技性能◎

12 :名無しさん@非公式ガイド:2006/05/22(月) 18:58:31 ID:2W67oHLe
そういうはじめてないではないす。

肝心なときに限ってジャグラーが動かない。
仕方ないから最初からはじめて
再生制限のない羽ガールから試す。

13 :名無しさん@非公式ガイド:2006/05/22(月) 19:49:51 ID:Va0HGgx0
VIPの残党に追い出されるような形になったな

14 :名無しさん@非公式ガイド:2006/05/22(月) 20:03:34 ID:2W67oHLe
別に派閥争いではない。
必要性を感じたから立てた。

むしろ俺はオンラインが出たら絶対に買うから
3・4・5の解析も冬までにやっておこうと思った。

で、2の円盤石の常識でヴァルキリー(キンキの「〜羽がある」)の結果。

【05:03.40】
18:38:06【サイローラー】
18:38.32【ビバローラー】←これ

はっきり言って失敗じゃあ!
ちなみにCD−RWで同じのをやったらモッチーが出た。

15 :名無しさん@非公式ガイド:2006/05/22(月) 23:04:54 ID:k+lQbDGl
2以外は需要も少ないしね

16 :名無しさん@非公式ガイド:2006/05/23(火) 12:32:30 ID:+Ipu1ixL
2の後半は超人が1人で出しまくってたから
1人で十分出る。

CD情報 おやくだち
ttp://www.excite.co.jp/music/
ttp://www.e-hon.ne.jp/bec/MM/Top

17 :名無しさん@非公式ガイド:2006/05/23(火) 18:43:21 ID:vf7dGSR0
その超人がいなかったら意味なす

18 :名無しさん@非公式ガイド:2006/05/23(火) 19:08:14 ID:+Ipu1ixL
2の解析してた頃
家ゲスレにいた奴なら大抵はできるがな。
そして俺も。

19 :名無しさん@非公式ガイド:2006/05/23(火) 20:19:01 ID:+51RcjeF
別にわざわざここでやらなくても、MF3〜5だったら相応のスレッドはあるわけで。
そこでやるべきだし、それこそ一人でやるんだったらサイトでも作ってオナニーしてろって。

20 :名無しさん@非公式ガイド:2006/05/23(火) 21:17:20 ID:+Ipu1ixL
それは新参らしい台詞だ。

実際に2のスレでやってたときも非難は多かった。
それに1も試すと言う人がいたから良いと思った。

21 :名無しさん@非公式ガイド:2006/05/24(水) 01:07:54 ID:BlPaWrV0
1人だけ、板違い板違いわめいていた基地外がいたがお前だったかw

22 :名無しさん@非公式ガイド:2006/05/24(水) 10:46:09 ID:nYqt1tCK
俺じゃねえよ。

23 :名無しさん@非公式ガイド:2006/05/24(水) 11:45:46 ID:OGVm3P6i
その超人、自分なんだが。
またしても見たいエロ動画のために部品を削除したんだ

ちなみにシングルは
エキサイトで調べた最終トラックとそれ+1秒の部品を作って
e-honで調べたトータル秒の-5秒〜+5秒くらいの組み合わせで解決してた。

トータル秒が1秒変化すると出るモンスターも変わるっぽい
つまり最終トラックさえ合っていればCDトータル1秒くらいの誤差までOk
つまり1秒ずつ増やす 又は減らす 
これを繰り返せばいつか正解にたどりつく  はず。
もっと確実性を高めるなら0.5秒刻みで増減させればいいのだが
これはめんどくさい 非常に疲れる 

e-honでCDトータル秒が分からないケースについては
エキサイトで調べたトータル秒の-20秒〜+20秒の広範囲でローラー作戦
ゴールドダストはこのやり方で出した

これはかなり疲れる
しかも最終トラックが間違っていたなら もっと疲れる

これはMF2のお話です。











24 :名無しさん@非公式ガイド:2006/05/24(水) 12:24:45 ID:OGVm3P6i
無意味な改行が入ってしまった すまない。

なぜ1秒刻みだと問題があるのか?
これについて補足

例として【420】14:12:03【ムー】
これは【420】14:12:03〜14:13:02 の範囲ならムーが出る
1秒(正確には0.74秒)の間隔がある

CDMは使用する部品によっては1個に0.01秒の誤差が生じる
0.1をぶち込んだはずなのに出来上がったimgでは0.11になってたりする
どの部品だとそうなるのか よく分からない すまない。
もちろん0.01の誤差は 使用する部品が多いほど狂う可能性が出てくるわけだ

つまりCDMで
【420】14:12:00 【420】14:13:00
このローラー作戦を行ったとする

でも実際に出来上がったimgのトータル秒が
14:12:02  14:12:03 になる可能性が出てくる

ああ なんという事か 最終トラックは合ってるのに
14:12:03〜14:13:02の範囲を飛び越えてしまう
出ない出ない と自分がゴネていたモノは大抵こうやって
1秒刻みの穴にハマった結果なのかも知れない

じゃあ0.5秒刻みにすりゃいーだろ
しかしな、兄者 それは非常にめんどくさい

25 :名無しさん@非公式ガイド:2006/05/24(水) 12:37:51 ID:OGVm3P6i
うわぁ 間違った

>でも実際に出来上がったimgのトータル秒が
>14:12:02  14:12:03 になる可能性が出てくる

これ

でも実際に出来上がったimgのトータル秒が
14:12:02  14:13:03 になる可能性が出てくる

に修正


以上が なんとなく自分がMF2のCDM再生で得た知識
ムーも出したし ある程度レアも出したし もう疲れたよパトラッシュ
これを見て
「オラ、ワクワクしてきたぞ! オラより強いレアに会いに行く!!」
そんな人が出てくれると嬉しい



26 :名無しさん@非公式ガイド:2006/05/24(水) 12:38:35 ID:nYqt1tCK
とりあえず俺は
ウィンディランスのみでAランク勝ちをしたあとに
グリュプスとキャバリーを作成する。
これが駄目でもファフニールのCDがあるから
ドラゴンの通常派生は1秒間隔で全て出るはずだ。

27 :名無しさん@非公式ガイド:2006/05/24(水) 20:09:45 ID:EJ5JCS8j
左はEACの表示で
右はEACで取り込んだ結果のWAVファイルの長さ
04:59.27_04:59.360
【05:10.50】_05:10.666
EACの表示の総合の長さ
10:10.02

右の数値でCD作成した結果
【グリュプス】(元のCD:愛はふしぎさ)
出た。

28 :名無しさん@非公式ガイド:2006/05/24(水) 20:58:46 ID:EJ5JCS8j
1 04:14.160
2 05:06.000
3 04:14.733
4 05:03.533

18:38.32
【ヴァルキリー】(キンキの〜羽がある)

3は最後のトラックだけ合わせても駄目か!?

29 :名無しさん@非公式ガイド:2006/05/24(水) 21:30:07 ID:qdxc9mF4
俺は2しか持ってないから今回は参加できません
ほんとに超人ひとりで頑張ってください

30 :名無しさん@非公式ガイド:2006/05/24(水) 21:42:43 ID:EJ5JCS8j
3以降はCD消費するから
参加しないほうがいいぞ。

31 :名無しさん@非公式ガイド:2006/05/24(水) 22:50:32 ID:EJ5JCS8j
ストロングホーン
よく見るとガリエルよりキモイから困る。

32 :名無しさん@非公式ガイド:2006/05/24(水) 23:05:07 ID:Lo50ImZv
ガリエルはキモくないよ!

33 :名無しさん@非公式ガイド:2006/05/25(木) 01:11:39 ID:/YfDxiyB
雑談スレに成り下がったかw

34 :名無しさん@非公式ガイド:2006/05/25(木) 12:35:06 ID:EfAD96WT
お前の目はフシアナか?

35 :名無しさん@非公式ガイド:2006/05/25(木) 13:07:07 ID:EfAD96WT
つーかいちいち捨て台詞を書き綴っていくな。
かっこいいつもりか?
先人は言ってたんだが
気に入らなければ来なければいいだけのことだと思うぞ。

36 :名無しさん@非公式ガイド:2006/05/25(木) 13:14:07 ID:EfAD96WT
>>7
かんがするどい
ttp://www.kuri.sakura.ne.jp/~monster/mf3/tokutyou_cd.html
確かめてないが極に載ってた

37 :名無しさん@非公式ガイド:2006/05/25(木) 14:51:50 ID:xOeKzbp2
↑ありがと

38 :名無しさん@非公式ガイド:2006/05/25(木) 19:37:16 ID:EfAD96WT
>>27はMF4で再生すると純血ドラゴン

39 :名無しさん@非公式ガイド:2006/05/26(金) 11:12:12 ID:dkMKlMxJ
MF2をエミュでやってるんだが、CD再生のときイメージファイルを使うとネンドロしかでない・・・
CDに焼くしか手はないですか?

40 :名無しさん@非公式ガイド:2006/05/26(金) 11:31:26 ID:CQODZPWt
>>39
デーモンツール。daemonでググレ。
イメージファイルを仮想CDドライブに。

トラック1…450のみでCD作ると
MF3…ピクシー
MF5…ドラゴン

41 :名無しさん@非公式ガイド:2006/05/26(金) 13:14:49 ID:esTztU6A
>>40
サンクス。
デーモンツール使っても未だにネンドロが。
CDマニピュレーター使ってIMGとCUEを作って、CUEをマウントしてやってる。
マイコンピューター開いてもちゃんとCD認識されているんだが。
一応CD-Rに焼いたらレアモンでたから間違いはず・・・。

エミュの方は神殿の円盤再生のときにCDROM(仮想CDドライブ)から読み込んでる。
何がいけないんだろうか。

42 :名無しさん@非公式ガイド:2006/05/26(金) 13:25:50 ID:CQODZPWt
CDドライブがロックされてる状態だとネンドロがでる。
具体的にはマニピュレータのリストで選択されているドライブはロックされるかもしれない。
そういった場合には別のドライブを選択するかマニピュレータを閉じるかだが、

それ以外の要因については判らない。

43 :41in携帯:2006/05/26(金) 13:39:15 ID:o9xLIcOo
>>42
やっとできたよ
エミュ側のドライブの設定が違っていたようだ
仮想ドライブ(G)なのにエミュでは(F)でやってた
丁寧に教えてくれて本当にありがとう

44 :名無しさん@非公式ガイド:2006/05/26(金) 17:58:41 ID:fMZCTJNk
1と2での方法は違ってたりしますか?

45 :名無しさん@非公式ガイド:2006/05/26(金) 18:06:31 ID:CQODZPWt
1やってないからわからんがなー。みたいな。

法則は違うかもしれないが
CDのトラック長を全部元のCDとあわせれば
レアとかでも出ると予想。

46 :名無しさん@非公式ガイド:2006/05/26(金) 23:40:28 ID:CQODZPWt
1と2の法則は違ってた。

今試しにやってみたが、
600だけだとゲル
1: 600 2: 0.9 【トライデント】
1: 600 2: 0.9 3: 0.9 【アンキロックス】
1: 600 2: 0.9 3: 0.9 4: 0.9 【ランドオベリスク】
1: 600 2: 0.9 3: 0.9 4: 0.9 5: 0.9 【ゴーレム】

見事にゴーレム派生なのだがこれは法則と関係ありか?

47 :名無しさん@非公式ガイド:2006/05/27(土) 16:06:26 ID:H6uDL9ou
ふーん。じゃあこのスレ用無し

48 :名無しさん@非公式ガイド:2006/05/27(土) 18:07:23 ID:b1ckNplm
トラック1 4:31
トラック2 6:29
トラック3 4:31
【アポカリプス】

49 :名無しさん@非公式ガイド:2006/05/27(土) 20:29:08 ID:ZdClAMD9
まとめサイトのマーメイドやってみたんだが、間違ってないか?
メルカーバ(ビークロン×ヘンガー)が出てくるんだが、検証求む・・・

50 :名無しさん@非公式ガイド:2006/05/27(土) 20:42:25 ID:b1ckNplm
おk。ちょっとまってくれ。

51 :名無しさん@非公式ガイド:2006/05/27(土) 20:49:20 ID:b1ckNplm
420
30
15
219
で確認した。

52 :名無しさん@非公式ガイド:2006/05/27(土) 21:02:51 ID:ZdClAMD9
>>51
サンクス!出てきた!
さっきは本スレかなんかにあった素材を使って、360・60・30・7・・・・・0.02みたいな感じでやってた
0.02はいらないのかな

53 :名無しさん@非公式ガイド:2006/05/28(日) 11:12:19 ID:o6lbdZl2
一応、まとめサイトに出てる奴は全部確認してるよ。
本スレの素材のみで時間は合わせてる

54 :名無しさん@非公式ガイド:2006/05/30(火) 20:34:25 ID:fFJSfK8f
【アマノガワ】70:28:20【90】
MF1は最初のトラック固定?

55 :名無しさん@非公式ガイド:2006/06/07(水) 20:13:24 ID:IogHHxLS
保守

56 :名無しさん@非公式ガイド:2006/06/07(水) 23:58:16 ID:QqMung55
保守

57 :名無しさん@非公式ガイド:2006/06/13(火) 21:03:16 ID:UC4Qs8Np
MF1で試そうとePSxeでやってみたがライガーしか出来ない…orz

58 :名無しさん@非公式ガイド:2006/06/15(木) 23:14:04 ID:ZYh0MLa4
あれじゃね?マウントするってやつよ。

59 :むこうの14:2006/06/20(火) 01:27:26 ID:erN1wuqk
自信満々でわざわざ(無駄に)長文書いたのに、前スレ読まず撃沈した14です。

もしお時間よろしければ現行本スレ(?)Part19の14にお目通しお願いします。
バイト数で指定するってのは、結構自信が…いやこの際もう、何も言うまい

一応コピペしときますと
トキビトがデータディスクで1トラックなため

>CreateFileBlockで419,307,504バイトのファイルを作り
>CUEファイルは1トラック目を0:00:00で行けました。

あと新たにジンジンジングルベル(ニューボトル)
150,379,824バイトで最後のトラックを10:32:62
こんな感じで。
TRACK 01 AUDIO
INDEX 01 00:00:00
TRACK 02 AUDIO
INDEX 01 10:32:62

これで、秒数とか気にせずに確実に再生できるはずです。
が、ご迷惑おかけしましたので永久にROMります
すいません

60 :名無しさん@非公式ガイド:2006/06/20(火) 09:42:17 ID:wdRGBvGM
きにすんな

61 :名無しさん@非公式ガイド:2006/06/20(火) 20:10:08 ID:MRKRZj2j
本当だ。撃沈してる。

62 :名無しさん@非公式ガイド:2006/07/01(土) 12:03:40 ID:k7lgasGf
保守

63 :名無しさん@非公式ガイド:2006/08/04(金) 22:21:26 ID:KDDwaB7K
保守

64 :名無しさん@非公式ガイド:2006/08/07(月) 10:08:09 ID:GMsR6h9t
http://s.pic.to/nhqa

65 :名無しさん@非公式ガイド:2006/09/16(土) 02:01:34 ID:kJq5sytc
.gtmdjt"@docomo.ne.jptjpt@docomo.ne.jp!
tjt!wmtgjmjtakotswtcj

66 :ミイ:2006/09/16(土) 11:26:22 ID:b8F3RgQ6
PS2のモンスターファームで無印、4、5のうちどれが一番面白いですか?

教えてください!

67 :名無しさん@非公式ガイド:2006/09/21(木) 18:01:34 ID:q2XWu5WG
>>54
おお、確認。
初代でもいくんだな。

68 :名無しさん@非公式ガイド:2006/10/08(日) 15:15:11 ID:MGapBnR+
>>66
PS2であれば4だな。

69 :名無しさん@非公式ガイド:2006/10/13(金) 18:03:12 ID:9T3Dg6pV
>>51の秒数でマーメイドを出そうとしてるんだが必ずビークロン系になってしまう…
CDMがどうやらドライブに対応してないらしいので仕方なくWMPで書き込みしてるんだがそれが原因か?

70 :名無しさん@非公式ガイド:2006/10/13(金) 18:15:38 ID:9T3Dg6pV
自己解決…
どうやらWMPで書き込むと最後のトラック以外にはなぜか+2秒されるせいみたいだ…

71 :名無しさん@非公式ガイド:2006/10/14(土) 17:38:20 ID:vJGMkUsl
MF2でゴーレム系のイメージファイル作れた人っている?
ゴーレム系のCDだけは持ってないから作ろうとしてるんだが、
ネンドロやらグジラ、プラントなんかしか作れない orz

72 :名無しさん@非公式ガイド:2006/10/17(火) 02:38:02 ID:M1ZhZ3bh
イメージ作成までの手順って以下で合ってるか?

例)ポアゾンのイメージを作りたい場合

1、無音メーカーで283秒(44,100 kHz、16ビット、ステレオ)のデータを作成する
2、それとは別に、音楽ファイルをいくつか見繕う
3、1と2で調達したファイルを元に、合計時間が17:43:03になるように調整
4、1のファイルを最後に持ってくる
5、イメージ作成

これでおk?

73 :名無しさん@非公式ガイド:2006/10/17(火) 20:37:58 ID:UheHKxvM
>>72
うむ。

74 :名無しさん@非公式ガイド:2006/10/20(金) 22:34:09 ID:jPf53bIv
PS2版の無印でアントランって出る?

75 :名無しさん@非公式ガイド:2006/10/21(土) 22:37:20 ID:EFBesLiu
すげえ!初代で虎舞竜のロードいれたらドラゴンでてきた、しかもレア



76 :名無しさん@非公式ガイド:2006/10/21(土) 23:18:30 ID:lpb/AVyh
>>74
出なかった希ガス
初出はアドバンス版じゃなかったかな?

違ったらすまん

77 :名無しさん@非公式ガイド:2006/11/03(金) 08:09:18 ID:+uS6fQo+
表に載ってないもの

ライライ
444 名前:以下、佐賀県庁にかわりまして佐賀県民がお送りします[] 投稿日:佐賀暦2006年,2006/11/02(佐賀県教育委員会) 17:46:41.51 ID:jgYnmBaC0
「環七フィーバー」ってシングルなんだが
総時間8:34:00
最後のトラック124s

ラジアン
473 名前:以下、佐賀県庁にかわりまして佐賀県民がお送りします[] 投稿日:佐賀暦2006年,2006/11/02(佐賀県教育委員会) 18:50:25.75 ID:VNamNUWS0
解析してラジアル出た
一曲目4分46秒
二曲目3分35秒


両方とも確認済
ただ、ラジアンは一曲目が286s、最後のトラックが216sらしい
つまり、総時間502s

78 :名無しさん@非公式ガイド:2006/11/03(金) 08:11:50 ID:+uS6fQo+
ラジアンじゃなくてラジアルだったorz

79 :名無しさん@非公式ガイド:2006/11/04(土) 00:31:07 ID:qex70dZz
21 名前:以下、佐賀県庁にかわりまして佐賀県民がお送りします[] 投稿日:佐賀暦2006年,2006/11/03(佐賀県と汚職) 23:17:45.41 ID:l+YCRfcx0
カイパンキターーー

22 名前:以下、佐賀県庁にかわりまして佐賀県民がお送りします[] 投稿日:佐賀暦2006年,2006/11/03(佐賀県と汚職) 23:20:21.69 ID:l+YCRfcx0
総時間74:19:00
最後のトラック158s
binファイル750MB

80 :名無しさん@非公式ガイド:2006/11/06(月) 22:47:16 ID:2jpvvlQc
MF1をくそ久しぶりにやってるんだがPS2で再生するとすぐフリーズするがこれは俺だけ?

81 :名無しさん@非公式ガイド:2006/11/06(月) 22:57:03 ID:Avo2V9m3
>>80
散々既出だがそれは仕様だ。
エミュでやるかプレステ1でやれ。

82 :名無しさん@非公式ガイド:2006/11/06(月) 23:01:56 ID:2jpvvlQc
サンクス!
PS売っちまった・・

83 :名無しさん@非公式ガイド:2006/11/07(火) 15:23:48 ID:iBuu4uki
こちらにも一応報告させて頂きます

スケルトン
総時間50:44:00
最後のトラック269s
binファイル 536,961,600 バイト
トライセラトップスのアルバムより

デンデン
総時間13:30:00
最後317s
binファイル 142,884,000 バイト
ウルフルズの「大阪ストラット」より

ゼブランナー
総時間46:51:00
最後206s
binファイル 495,860,400 バイト
スピッツ「フェイクファー」より

84 :名無しさん@非公式ガイド:2006/11/07(火) 15:26:17 ID:iBuu4uki
ダンゴウザカ
総時間16:36:00
最後256s
binファイル 175,697,920 バイト
ないてないってば/裕木奈江より

ドミノス
総時間46:52:00
最後291s
binファイル 496,036,800 バイト
山崎まさよし「ドミノ」より

キンゾー
総時間13:11:00
最後253s
binファイル 139,532,400 バイト
奥井亜紀の「泣くもんか」より


85 :名無しさん@非公式ガイド:2006/11/07(火) 15:30:00 ID:iBuu4uki
ベタピン
総時間43:31:00(2611s)
最後449s
binファイル 460,580,400 バイト
Eaglesの「Hotel California」より

ドレッドハーブ
総時間70:14:00(4214s)
最後846s
binファイル 743,349,600 バイト
Misiaの「Mother Father Brother Sister」より

ダンゴウザカとドミノスは確認聞いてないような気がしたけど
多分大丈夫なはず?
カスミ、トルネード、ブロンズゾーは自分では無理っす。では。

86 :名無しさん@非公式ガイド:2006/11/07(火) 15:35:04 ID:PHH8vNlG
>>85
両方とも確認済みっす

87 :名無しさん@非公式ガイド:2006/11/07(火) 17:01:05 ID:iBuu4uki
>>86
ドモ

誰でもいいから、上記三匹のCD持ってる人がいたら時間のデータください
調節は自分がするので。

88 :名無しさん@非公式ガイド:2006/11/07(火) 18:40:13 ID:iBuu4uki
>>83
またデンネンの名前間違えた。
間違いなく呪われる

89 :名無しさん@非公式ガイド:2006/11/08(水) 19:08:04 ID:pFWiIpkh
こっちにも報告
トルネード
imgファイル 490,479,024 バイト
最後のトラック 42:48:52

PSソフトのファイティングイリュージョンより

90 :名無しさん@非公式ガイド:2006/11/08(水) 19:56:19 ID:Z0aQFBiw
>>89じゃないけど一応秒数の場合
総時間42:48.52+3:31.60
最後のトラック3:31.60

91 :名無しさん@非公式ガイド:2006/11/08(水) 20:44:17 ID:pFWiIpkh
>>90
よく見たら説明不足な書き込みだったなw
補足dクス

92 :名無しさん@非公式ガイド:2006/11/12(日) 19:07:39 ID:qj6zh5k3
情報提供者に感謝
カスミ
PS版DEAD OR ALIVE
img 590,192,064Byte

TRACK 01 AUDIO
INDEX 01 00:00:00
TRACK 02 AUDIO
INDEX 01 52:31:48

ブロンズゾー
サイズ815,478,384 バイト

TRACK 01 AUDIO
INDEX 01 00:00:00
TRACK 02 AUDIO
INDEX 01 74:55:65

総時間74:55.65+2:07.02=77:02.67
最後のトラック2:07.02

両方とも確認済み

93 :名無しさん@非公式ガイド:2006/11/13(月) 03:37:23 ID:pnyqNLAU
うっひょー乙です。

94 :名無しさん@非公式ガイド:2006/11/15(水) 00:33:25 ID:EKhSGoI2
(・ω・)今さらながらまとめ更新しました

95 :名無しさん@非公式ガイド:2006/11/15(水) 03:58:18 ID:PI0wtQu5
乙ですー。しかしあれだな。ここ人減ったな。
話題が出尽くしたってのも有るんだろうが。

96 :名無しさん@非公式ガイド:2006/11/15(水) 14:53:15 ID:dAKFJqhy
>>94
乙です〜。

まあ、人少ないほうが情報がスッキリするんじゃね?

97 :名無しさん@非公式ガイド:2006/11/15(水) 17:50:53 ID:62xDu2Nk
ジェントル・ディスクナイトンはわからなくもないけど
トキビトはなんでスルーされてるんだw

98 :名無しさん@非公式ガイド:2006/11/15(水) 20:13:22 ID:KAU3GktR
もしトキビトの時間わかんないから掲載してないならこれでどうかな
総トラック数1
演奏時間39:37.02
確かめてないから出るか曖昧だが多分出ると思う

99 :名無しさん@非公式ガイド:2006/11/15(水) 20:20:17 ID:KAU3GktR
ああ、後、37.02の「.」は「:」でも表記構わないですよ
トルネードもブロンズゾーも

100 :名無しさん@非公式ガイド:2006/11/18(土) 10:51:45 ID:CDYDHOM/
指摘サンクスです。トキビト追加しておきました。

101 :名無しさん@非公式ガイド:2006/11/18(土) 22:29:14 ID:YXxUqynR
まとめスレのニューボトルって間違いない?
作ってみたらハチローが出てきたんだけど

102 :名無しさん@非公式ガイド:2006/11/18(土) 23:04:38 ID:AAhYaDjA
ちゃんと出た
おそらく作り方が間違っている。
データCDの方式で作っているから>>59の作り方をしている。
トルネード、カスミ、トキビトも同じ

まとめにもCreateFileBlockとか載せた方がいいんじゃないかなぁ?

103 :名無しさん@非公式ガイド:2006/11/20(月) 00:43:09 ID:3R7zRkqZ
MF1をePSXe1.01で再生すると最初からを選択するところで固まってしまいます。
なにか設定が必要なのでしょうか?
それとも新しいバージョンにすれば良いのでしょうか。
CDドライブは2つありますが、2つとも駄目でした。

104 :名無しさん@非公式ガイド:2006/11/20(月) 07:44:26 ID:iMoHxiX7
何故に1.01を使うのか分からないが、
1.60を入れてそれでも駄目ならまた来なさい。

105 :名無しさん@非公式ガイド:2006/11/25(土) 07:12:35 ID:rtWN60kH
あげますね

106 :名無しさん@非公式ガイド:2006/11/25(土) 17:34:13 ID:JIUKmSku
アポカリプスって作れる?

107 :名無しさん@非公式ガイド:2006/11/29(水) 04:36:34 ID:p8o1ED8Q
アホの子で申し訳ないんだけど、データCDの方式がいまだによくわからない。
トキビトを作るとして、419307504byteを放り込んだらその時点で39:37:02を超えちゃうんだけど。
それでも再生してみたら案の定、別なの(ホッパー×ライガー)が出来ちゃった。
今度は再生時間に合わせようと思って350000000byteぐらいの作ってやってみたけど、無駄だった。
ちゃんと仮想ドライブから再生させてるんだけど、何が原因でしょうかね

108 :名無しさん@非公式ガイド:2006/11/29(水) 12:52:59 ID:Zjj37LJN
本当だ。トキビトは再生時間越えてしまうな。
カスミは出来たんだが…。何でだろ?

109 :名無しさん@非公式ガイド:2006/12/01(金) 22:45:39 ID:qMAk3s2s
39分だぜ?超えないだろ

110 :名無しさん@非公式ガイド:2006/12/01(金) 23:01:07 ID:Urcakpa1
>>109
成功したのか?
CreateFileBlockを使ってimgを作って、txtでcueを作ったんだが仮想で読み込まない。
カスミは問題なく出来たんだぜ?

それとも焼くこと前提なのか?

111 :名無しさん@非公式ガイド:2006/12/02(土) 15:25:56 ID:PjimU6z/
1で再生出来ないモンスターを再生するやり方ってどこでフタを開ければいいんですか?

112 :名無しさん@非公式ガイド:2006/12/02(土) 19:57:38 ID:g85wAVzJ
>>110
CreateFileBlock作ったんなら
FILE "トキビト.img" BINARY
TRACK 01 AUDIO
INDEX 01 00:00:00
でいけるんだぜ
別にimgはbinでも構わないけど
"トキビト"はCreateFileBlockで作ったファイル名な
音楽からやるなら普通に一ファイルで39:37.02作るだけだぜ?
お前は多分CreateFileBlockでファイル作ってそのcueのINDEX 01 00:00:00の時間をINDEX 01 39:37:02にしてないか?
39:37.02を生かしたいならCreateFileBlock使わずに普通に無音WAVEを作ってイメージ作るがいい

113 :110:2006/12/02(土) 23:33:31 ID:wwhgVgW6
>>112
なるへそ。INDEX02を作って39:37:02にしてたわ。
dクス

114 :110:2006/12/02(土) 23:40:44 ID:wwhgVgW6
>>112
できたわ〜。dクス

って俺>>107じゃないんだけどね

115 :名無しさん@非公式ガイド:2006/12/07(木) 02:06:19 ID:KzzWZfpW
モンスターファームの攻略スレってないっすか?
探してみたけどないみたいで・・・誘導お願いします。

116 :名無しさん@非公式ガイド:2006/12/11(月) 21:54:55 ID:gBKK5oXz
PS版モンスターファーム 21匹目
http://game10.2ch.net/test/read.cgi/famicom/1159963068/

117 :名無しさん@非公式ガイド:2006/12/12(火) 00:18:10 ID:+b7dJwGf
厨質問ですみませんが、ヴァージアハピを出すにはトラックをどう設定すれば良いですか?

118 :名無しさん@非公式ガイド:2006/12/12(火) 23:00:22 ID:CNcTFYtB
>>117
トルネード+ミーアとかじゃ駄目なん?
CD再生は寿命が微妙に違ってくるから細かく育てるときに問題があると思うし

まあ、金欠でそれが嫌ならちょっと調べる見るから待て

119 :名無しさん@非公式ガイド:2006/12/12(火) 23:43:10 ID:CNcTFYtB
ヴァージ
総時間25:30:00(1530s)
最後のトラック745s+その他785s
binファイル269,892,000 バイト

どれも基本ステより高くてなかなか

120 :117:2006/12/13(水) 00:06:33 ID:VTL06m6m
CreateFileBookを使ってる人がわざわざ変えるほどではないと思いますが、
http://www.atmarkit.co.jp/fwin2k/win2ktips/243largefile/largefile.html
WinXP限定ですが、これだとめちゃくちゃ速いです。
文字通りほぼ一瞬で作れました。
コマンドラインが好きな人は結構お勧めです。
(既出だったらすみません)

>>118-119
ありがとうございます!!
でました。
実はまだ2は始めたばっかりでレアモンが出せなくて・・・
わざわざ調べて頂いて本当にありがとうございました。
これでまずは頑張ってみます。

121 :名無しさん@非公式ガイド:2006/12/18(月) 23:40:54 ID:zcLf78nN
0秒以下(0.01秒など)を作る事が出来ないんだが
いったいどうすれば・・・

122 :名無しさん@非公式ガイド:2006/12/19(火) 23:49:23 ID:JwUv2hgx
>>121
少し誤差があっても大丈夫だと思うけど…
駄目だったら録音フリーソフトでも使ってみれば?

123 :名無しさん@非公式ガイド:2006/12/23(土) 00:51:41 ID:rTKv6VmU
作り方がいまいちわかりにくいんですが
CD-Rに録音した音楽をいれるだけでいいんですか?
それとCD-RWでもいいんですか?

124 :名無しさん@非公式ガイド:2006/12/24(日) 23:36:06 ID:2gESMmDS
>>123
とりあえず>>5読んでみてわからなかったらまた来い

125 :名無しさん@非公式ガイド:2006/12/26(火) 20:26:32 ID:hC1t9HbH
総合落ちた?

126 :名無しさん@非公式ガイド:2006/12/26(火) 20:30:48 ID:UdyeTada
うん(;_;)

127 :名無しさん@非公式ガイド:2007/01/03(水) 08:59:36 ID:YXIWo/I5
あげ

128 :名無しさん@非公式ガイド:2007/01/07(日) 21:03:17 ID:2PJIATgz
はやくラクガキモノがみたい

129 :名無しさん@非公式ガイド:2007/01/07(日) 23:18:07 ID:8lZAW3Q+
石盤系はムリじゃね?

130 :名無しさん@非公式ガイド:2007/01/08(月) 02:09:29 ID:LepOGAZf
まじか 英会話のCDからでたらしいが、おとなしくMF1から再生したほうがよさげかな

131 :名無しさん@非公式ガイド:2007/01/14(日) 08:21:16 ID:HVihREBi
hosyu

132 :名無しさん@非公式ガイド:2007/01/20(土) 08:39:01 ID:4n3TE5v1
保守

133 :名無しさん@非公式ガイド:2007/01/24(水) 12:20:59 ID:Y79AH8at
hosyuri

134 :名無しさん@非公式ガイド:2007/01/26(金) 03:40:58 ID:ElWgEAJN
>>131-133
保守する人は「くれくれ君」なんだな
保守するまでも無く、自分で話題を振って
それで他の人も書く込むならめでたしめでたしな訳で、

他の人の面白い話題を待つ為に保守するなんて
私は必要ないと思うな、

2ちゃんねるの決まりにもあるように
「他人から見て面白いことを書こう」ですから
保守のレスみて誰が面白いと思うのか、

135 :名無しさん@非公式ガイド:2007/01/26(金) 05:05:22 ID:zEQxXOqf
>>134
それ何かのコピペなのかどうか知らんが、
君自身はそのレスが面白いと思ったから書き込んだの?
それともただの保守のつもり?

136 :名無しさん@非公式ガイド:2007/01/26(金) 10:17:46 ID:KIEyfAl6
書く込むw

137 :名無しさん@非公式ガイド:2007/01/29(月) 12:36:36 ID:DcX1CK/L
まとめサイトや>>112付近の説明を読んでもデータCD形式の事がいまいちよくわからないので
もう少し詳しく説明していただけませんかorz

例えば、カスミを出そうとしてCreateFileBlockで590,192,064Byteのファイルを作成すると
576,360KbのBLK形式ファイルができてくる
これをCdManipulatorのマスタリングで「データトラックの構造」に突っ込んでイメージ作成すると
binファイルとcueファイルができてくる
それをそのまま読み込むと、全く別のモンスターになってしまってるんです

これまでの過程を間違っているのか、まだ何かの工程が足りないのかもわからないので
どなたかご教授お願いします

138 :名無しさん@非公式ガイド:2007/01/29(月) 22:04:55 ID:f8F5xkbl
>>137
自分も詳しい知識はないので、自分のやり方で説明すると
BLKファイルの拡張子をimgファイルに変える。
次に、メモ帳に情報を打ち込んで拡張子をtxt→cueへ
んで、仮装ドライブにぶっ込む。

メモ帳の情報云々は、適当な音楽CDとかからイメージ吸い出して
出来たcueファイルをtxtファイルに変えて中を比べれば、何となくわかるかと

139 :137:2007/01/30(火) 03:53:15 ID:utsPNFYC
>>138
時間がかかりましたが何とか再生する事ができました。
>>92辺りに書いてあった
TRACK 01 AUDIO
INDEX 01 00:00:00
TRACK 02 AUDIO
INDEX 01 52:31:48
と言うのがcueファイルに書き込む情報だったんですね。
返答どうもありがとうございました。

140 :名無しさん@非公式ガイド:2007/01/30(火) 17:49:37 ID:utsPNFYC
需要があるかわからないし、既出かもしれないけど1の法則?のような物に気付いたので書き込みます。

無音WAVEファイルメーカーを使用して1分刻みのWaveファイルを20個(1分〜20分まで)作り、
そのファイルを一つずつイメージ化して再生したところ
20個のファイル全てから純種のモンスターが誕生するという結果になりました。
まとめると次の様になっています。

1分・4分・13分・19分→ディノ  2分・5分・15分・20分→ライガー
3分・6分・10分→ゲル      12分・14分・18分→スエゾー
9分・16分→ハム   7分→ゴーレム  8分→ワーム  11分→モノリス
17分→プラント

恐らく1分刻みで時間を増やしていった場合必ず何かしら純種のモンスターになるものと思われます。
まだナーガ・ピクシー・ガリが出現していないので
更に1分刻みで増やしていけば出てくるのではないかと思いますが、
ファイルの生成に時間がかかるのでとりあえず20分までのファイルでの結果を報告してみました。
もしかしたら、ドラゴンなんかの純種も出てくるのかもしれませんね。

141 :名無しさん@非公式ガイド:2007/01/30(火) 23:54:30 ID:jr4zaqVg
>>140
乙です

2も種ごとにまとまってるようで、
1秒変えると、メインは変わらず派生のみが変わったりしまする

142 :140:2007/01/31(水) 07:08:14 ID:S0kbyfk9
先程また少々いじっていたら
またちょっとした事に気付きました。

>>140ではイメージ化する際にトラックが一つだったので
今度はトラックを二つにしてみました。
その際トラック1を1分のファイルで固定して、トラック2を1分〜20分のファイルで試してみた所
サブは必ずゴーレムなのですが、メインが1分〜20分に割り当てられたモンスターと同一になりました。

例えばライガーが再生される2分のファイルをトラック2にすると
再生されるのはトウテツになり、
プラントが再生される17分のファイルをトラック2にした場合はガンセキソウが再生されるわけです。

ただ、トラック1がディノの再生される1分のファイルなのに
サブがディノではなく何故ゴーレムなのかというのがさっぱりです
トラック1を2分〜20分の物に差し替えてまたチャレンジしてみようと思ってます。

143 :名無しさん@非公式ガイド:2007/02/02(金) 14:19:00 ID:EnrRxdtR
1のレアモンすこしだけ置いていきますね

エステシャン(4:49 5:19 4:49)
ボンサイ  (4:23 4:59 4:21)

144 :名無しさん@非公式ガイド:2007/02/02(金) 18:00:37 ID:0iwQpxeC
>>143
乙やで!

145 :140:2007/02/04(日) 11:54:48 ID:cB4Lxrn4
小出しで申し訳ないですが>>143に書けなかったので一匹追加です。

タンク
img 258,912,864Byte

TRACK 01 AUDIO
INDEX 01 00:00:00
TRACK 02 AUDIO
INDEX 00 24:05:55
INDEX 01 24:07:55

146 :140:2007/02/04(日) 12:43:41 ID:Q0B/JjIW
もう一匹追加です

サンタ
img 404,972,064Byte

TRACK 01 AUDIO
INDEX 01 00:00:00
TRACK 02 AUDIO
INDEX 01 01:41:37
TRACK 03 AUDIO
INDEX 01 34:21:05

サンタは初代のサントラから読み込んだのですが、
トラック数が42もあるうえに
個々のWAVE収録時間を増やしてトラックの削減をした場合
何故かサブ系統が変わってしまったのでWAVEで再現するのは断念しました。

147 :名無しさん@非公式ガイド:2007/02/06(火) 09:42:13 ID:R4CCcppG
>>145-146
よくやった。これからも頼む。

148 :140:2007/02/06(火) 22:41:52 ID:+ZHt8Qnl
1のレアモンではありませんが、2のメタルゲルを追加です。
このメタルゲルは最初からガトリング持ちなのでかなり使えると思います。

メタルゲル
トラック合計時間53:41
最終トラック4:36

この作業かなりしんどいですね_○/|_
2のレアモン見つけてた方超お疲れです

149 :名無しさん@非公式ガイド:2007/02/07(水) 20:58:49 ID:nSYMtP8+
>>116
遅レスだが>>48

150 :名無しさん@非公式ガイド:2007/02/07(水) 21:01:20 ID:nSYMtP8+
>>106
>>48
だった。ミス

151 :140:2007/02/08(木) 17:52:39 ID:E8n9T+LR
1のレアモン二匹追加です。

チョンマゲ
(3:44 4:25 3:41)

ティーシャツ
img 328,261,584Byte
TRACK 01 AUDIO
INDEX 01 00:00:00
TRACK 02 AUDIO
INDEX 01 04:01:35
TRACK 03 AUDIO
INDEX 01 26:51:47



152 :名無しさん@非公式ガイド:2007/02/08(木) 18:12:56 ID:Kek932ia
otu

153 :名無しさん@非公式ガイド:2007/02/08(木) 18:35:40 ID:IUxnsTeP
>>71
遅レスだが一部。
【300】
【ストロングホーン】41:00:06
【タイタン】41:01:72
【アンゴルモア】41:02:68
【モアイゴン】41:03:64
【ウッディー】41:04:60
【ヘビーダイアナ】41:05:56
【アメンホテプ】41:06:52
【スリーピー】41:08:40
【ブルーマウンテン】41:10:31
【ダゴン】41:12:22
【ゴビ】41:14:13
【ダオ】41:15:43
【タイラント】41:16:39
【バトルロックス】41:21:16
【マグナビートル】41:22:12
【プレッシャー】41:23:41
【グランドバンカー】41:24:36
【マーブルガイ】41:28:18
【マリオマックス】41:29:14
【ゴーレム】41:30:43

154 :140:2007/02/09(金) 15:28:47 ID:3KJDYpBc
二匹追加です。

ギャロップ
img 403,619,664Byte
TRACK 01 MODE1/2352
INDEX 01 00:00:00
TRACK 02 AUDIO
INDEX 00 02:09:54
INDEX 01 02:11:54
TRACK 03 AUDIO
INDEX 01 34:16:61


ラクガキツー
img 726,476,352Byte
TRACK 01 AUDIO
INDEX 01 00:00:00

ギャロップは読み込みに時間がかかるかもしれません。
手持ちのネタが尽き、しばらく情報の提供はできないと思いますので
また解析に戻ります。


155 :名無しさん@非公式ガイド:2007/02/09(金) 15:50:36 ID:bZhohjHg
まとめの人まだここ見てるのかなぁ。

156 :名無しさん@非公式ガイド:2007/02/13(火) 20:36:37 ID:gaRq4S75
保守しかできない無能な俺ワロス

157 :名無しさん@非公式ガイド:2007/02/13(火) 20:49:30 ID:9kf+DQbj
じゃあ俺も保守
お前様は一人じゃにい

158 :名無しさん@非公式ガイド:2007/02/13(火) 20:51:13 ID:77xCkJWJ
26:51:47

これって「26分51.47秒」って読みておk?

159 :名無しさん@非公式ガイド:2007/02/13(火) 21:01:12 ID:6NhKl5Yl
26分51秒47だ。
同じだけどな

160 :名無しさん@非公式ガイド:2007/02/15(木) 15:40:12 ID:EkWKH4K/
一秒未満の秒数も>>5でできるのか

161 :名無しさん@非公式ガイド:2007/02/15(木) 15:45:01 ID:Efa34By7
ぴったりなら確実だが前後少しなら出来るかもしれないしかし
別のモンスターに変わる危険がある。
CD−Rは余分に持ってたほうがいいし
3回くらい試して出来なかったら諦めた方がいいかもしれない

162 :名無しさん@非公式ガイド:2007/02/15(木) 16:20:05 ID:EkWKH4K/
thx
ロムは消耗品だから辛いぜ

163 :名無しさん@非公式ガイド:2007/02/15(木) 18:55:49 ID:sKPnc/z7
CD-RWじゃだめかな?

164 :名無しさん@非公式ガイド:2007/02/15(木) 19:10:23 ID:Efa34By7
PSとPS2本体はRW読み込まない気がした。
つかエミュもダメかもしれないが

165 :名無しさん@非公式ガイド:2007/02/15(木) 21:27:21 ID:+4QlGhUM
今PS2新品だといくらくらいでしょうか?

166 :名無しさん@非公式ガイド:2007/02/15(木) 21:54:53 ID:EkWKH4K/
スレ違いだが一万五千円じゃね?
っつーか自分で調べろ

167 :名無しさん@非公式ガイド:2007/02/15(木) 22:14:25 ID:+4QlGhUM
ありがとう…ごめんなさいです

168 :名無しさん@非公式ガイド:2007/02/15(木) 22:28:39 ID:Efa34By7
PS2だとモンスファー1〜5できるが
1と2は停止する箇所があるかもな

169 :名無しさん@非公式ガイド:2007/02/18(日) 15:20:06 ID:popXILi9
1で大会の途中で止まるのはキツイ

170 :名無しさん@非公式ガイド:2007/02/23(金) 01:21:01 ID:ayX7Jw3+
定期age

171 :名無しさん@非公式ガイド:2007/02/25(日) 08:39:02 ID:6lTqK7Dq
今度出るオンラインは期待していいんでしょうか?

172 :名無しさん@非公式ガイド:2007/02/26(月) 01:18:45 ID:EQJD4LaT
オンラインはいつ始まるんでしょうか?

173 :名無しさん@非公式ガイド:2007/03/18(日) 21:19:07 ID:tTtqCG+k
ものすごい低レベルな質問なのですが・・・
せっかく作ってCD-Rに書き込もうとしたらブランクメディアをセットしてくださいといわれ、
書き込みが出来ませんでした。
どなたか親切な方教えてくれるとうれしいです

174 :名無しさん@非公式ガイド:2007/03/18(日) 21:36:16 ID:6sTxdeZd
ブランクメディアとは焼いてないCD−R等記憶媒体の事だ
ドライブが書き込み可能かどうか
CD−Rが未使用の物かどうか確かめよ

それ以上は専用の板に行って聞くんだ

175 :名無しさん@非公式ガイド:2007/03/21(水) 05:01:28 ID:Sjkn/sh6
神様1のイヴとバニーをお願いします・・・

176 :名無しさん@非公式ガイド:2007/03/21(水) 07:05:33 ID:Sjkn/sh6
1のプラチナ(ピクシー×???)
img 603,817,200バイト

  TRACK 01 AUDIO
    INDEX 01 00:00:00
  TRACK 02 AUDIO
    INDEX 01 01:13:10
  TRACK 03 AUDIO
    INDEX 01 53:26:07

試してないけれど中見たらこういう感じでした
因みに全体で57:03:00かと思う

177 :名無しさん@非公式ガイド:2007/03/21(水) 13:14:02 ID:G+16XcpB
>>176乙です。ちゃんと再生できましたよ

イヴの再生CDは廃盤らしいので持っている人は少ないでしょうね
ここを覗いてる人で持っている方が居るかどうか・・・
自分もPCエンジンソフトから再生されるヴィゴールの情報を求めて
ここにたどり着いたわけなんですがさっぱりだったので情報提供の側にまわってましたw


178 :名無しさん@非公式ガイド:2007/03/21(水) 21:50:42 ID:RsmkN2GQ
>>177
1dec37296f82eb7853454646081549effeff0ec5
e4b48dc03be9f8e84d3415ccd16bf068c213ecd6
11f1c1b1a9721cad7239ba77e569cb0b8577ff04

179 :名無しさん@非公式ガイド:2007/03/21(水) 23:58:05 ID:G+16XcpB
>>178の文字列が何を表してるのかわからないんですが
イヴかヴィゴール関連の事なのかな?

180 :名無しさん@非公式ガイド:2007/03/22(木) 01:42:28 ID:3cQvc7ut
ハッシュ でググるんだ

181 :名無しさん@非公式ガイド:2007/03/22(木) 01:44:56 ID:VfFKOkZD
寧ろ知らない方がいいこともある。

182 :名無しさん@非公式ガイド:2007/03/22(木) 12:24:19 ID:DH4W1tU2
重要なのはハッシュではないんだ

183 :名無しさん@非公式ガイド:2007/03/23(金) 09:35:13 ID:7hOCFhNR
というかハッシュがわかっているのなら落として内容を教えていただきたい

184 :名無しさん@非公式ガイド:2007/03/24(土) 08:44:32 ID:NDVPLd+I
あの・・それは・・

185 :名無しさん@非公式ガイド:2007/03/28(水) 03:33:30 ID:/8YjcnJY
1のスエゾー系のレアモン マンコウ置いときますね
img 554,255,856 B

cue
TRACK 01 AUDIO
 INDEX 01 00:00:00
TRACK 02 AUDIO
 INDEX 01 01:36:13
TRACK 03 AUDIO
 INDEX 01 47:31:53

総52:22:03

186 :名無しさん@非公式ガイド:2007/03/28(水) 19:23:58 ID:dLybDeYH
マンコウ

187 :名無しさん@非公式ガイド:2007/03/30(金) 23:33:45 ID:yNJbcgRR
スレ違いで申し訳ないんですがモンスターファーム2の双子座の水差し等の
アイテムは所持数分だけ重複するのでしょうか?
攻略サイトを見回ると,重複されていると書かれているところがあったの
ですがサンプルがそこ一個なので信頼性が薄いのです。
自分でも確かめて見ましたが良くわからないのが現状です。
どうかご存知の方教えていただけませんか?

188 :187:2007/03/30(金) 23:38:10 ID:yNJbcgRR
該当スレがありましたのでそちらで聞く事にします。
スレ違い申し訳御座いませんでした。

189 :名無しさん@非公式ガイド:2007/04/03(火) 01:42:35 ID:BWBnqZrD
CdManipulatorでCD-Rに書き込もうとしているのだが
プリギャップの書き込み中にエラー発生になって書き込めないのだが
どうすればいいんだ?

190 :名無しさん@非公式ガイド:2007/04/08(日) 21:20:46 ID:KUmBW9wk
>>119のデータを再現する為に
269,892,000byteをCreateFileBookを使って作ってvjhp.imgにリネームして

FILE "vjhp.img" BINARY
TRACK 01 AUDIO
INDEX 01 00:00:00
TRACK 02 AUDIO
INDEX 01 12:25:00

とcueファイルを作ってみてやったのですがうまくいきません。
どうか詳しいやり方を教えてください。
まとめサイトを見てCreateFileBookを使うニューボトルは作ることが出来ました。
よろしくお願いします。

191 :名無しさん@非公式ガイド:2007/04/08(日) 22:34:00 ID:9ZFYgIXj
>>190
やり方はそれで合ってます

cueの中の情報は、どうもトラックの始めの場所を示しているようなので
12:25:00 のところを13:05:00にすれば、
最初のトラックが785秒で最後のトラックが745秒になるかと

192 :名無しさん@非公式ガイド:2007/04/08(日) 23:55:14 ID:9ZFYgIXj
CDに焼くときは、vjhp.imgとvjhp.cueを同じフォルダにおいて
CDマニュピレータのイメージをCDに書き込む、にある
書き込むcue-sheet のところに作ったvjhp.cueを選んでOKです

193 :190:2007/04/09(月) 01:00:09 ID:QCS9Djee
>>191-192
ありがとうございます。
最後のトラックの意味がやっと分かりました。
無事ヴァージアハピ誕生しました。
ありがとうございました。

194 :名無しさん@非公式ガイド:2007/04/09(月) 21:59:58 ID:npHgoDFZ
176です、だいぶたっていますがお礼 >>177さん再生してくれてありがとうございます
それからヴィゴールの出るソフトですが中古で安く売っていたので買っちゃいました
ヴィゴール
img 396,154,416 Byte

  TRACK 01 AUDIO
    INDEX 01 00:00:00
  TRACK 02 MODE1/2352
    INDEX 00 00:45:70
    INDEX 01 00:47:65

ついでにバニーも
img 722,122,800 Byte(再生時間68:13:50)

 TRACK 01 AUDIO
  INDEX 01 00:00:00
 TRACK 02 AUDIO
  INDEX 01 01:37:22
 TRACK 03 AUDIO
  INDEX 01 65:01:22
今度はちゃんと確認してありますので大丈夫と思います
ちなみにイヴのCDも探してみましたが、やっぱり置いてなかったですw

でわ〜

195 :名無しさん@非公式ガイド:2007/04/10(火) 10:43:47 ID:WSJB9JBA
>>194さん乙です
なんだか自分の発言で>>194さんにヴィゴール再生CDを買わせてしまった感が;
今度データ提供のお礼も兼ねて中古ショップでイヴ再生CD探してみます
見つかればいいんだけど・・・

196 :名無しさん@非公式ガイド:2007/04/10(火) 11:40:42 ID:WSJB9JBA
ヴィゴールは無事再生できましたが、バニーが再生できませんでした
自分だけかな?

197 :名無しさん@非公式ガイド:2007/04/10(火) 19:03:20 ID:b7mWCPf7
>>195
ヴィゴールのCDは自分の判断で買ったものなのでお気になさらずに
イヴのCDなら別に結構ですよ〜
そしてご指摘感謝、バニーですがcue情報書き込むときにTRACKとかINDEXの前に
全角スペース入れたのがマズかったようで、ごめんなさい
というわけで貼りなおし

バニー(ピクシー×???)
img 722,122,800 Byte 

TRACK 01 AUDIO 
INDEX 01 00:00:00 
TRACK 02 AUDIO 
INDEX 01 01:37:22 
TRACK 03 AUDIO 
INDEX 01 65:01:22 

198 :名無しさん@非公式ガイド:2007/04/11(水) 02:36:23 ID:HPpiVNJh
MF2
始めから強いとか技2個以上持ってるモンスターって居ない?
円盤石って必ず標準ステータスとレアなら技1個あるかないかって決まってるの?

199 :名無しさん@非公式ガイド:2007/04/11(水) 02:49:30 ID:VO/QFwE+
>>198
MF1ならレア種は寿命優遇があったけどな。
始めから強いはまず無い。種族によって多少のステの伸び優遇とかはあるけど。
そんなに始めから強いモンスターが欲しいのなら、合体を活用するかMF1のフルパラレアモンの石版再生。

技を何個か持っているモンスターについて把握したいんなら、改造コード使って一度調べてみろ。
レアモンなら一匹あたりに固有データが二つ、三つぐらい保有されている。

200 :名無しさん@非公式ガイド:2007/04/11(水) 09:59:20 ID:hh5Flzu/
>>198
ミーアが初期技5つぐらい持ってたきがす
あとすえきが強い

201 :名無しさん@非公式ガイド:2007/04/11(水) 21:40:19 ID:pSqSQvln
無音WAVメーカーで0.01秒ファイルを作るのはどうやるんですか?

202 :名無しさん@非公式ガイド:2007/04/11(水) 21:58:50 ID:pSqSQvln
201です。間違えました。
0.1秒ファイルの作り方がわからないのですが、どなたか教えてくださいませんか?

203 :名無しさん@非公式ガイド:2007/04/11(水) 22:12:02 ID:zS44c/NU
トラックの秒数は少数点以下の場合気にしなくても再生はできますよ
例えば、01:37:22だとしたら01:37:00でもいけます


204 :名無しさん@非公式ガイド:2007/04/11(水) 22:38:13 ID:pSqSQvln
>>203
ありがとうございます。

205 :名無しさん@非公式ガイド:2007/04/16(月) 00:45:22 ID:0Si7kdEb
ミミニャーとかそういうのはあれか

上にあるようなサイトで最終トラックの時間調べて合計の時間を合わせりゃいいのですかね?

206 :名無しさん@非公式ガイド:2007/04/16(月) 22:17:45 ID:ecBgD4M0
2だったらレアモン同士の合体でもいい気がしますが
(ミミニャーならトルネード+カイパン)
大体それでOKなはずです

207 :名無しさん@非公式ガイド:2007/04/18(水) 15:53:31 ID:0SzkS9u9
カイパン 158 74:19:00 なら
合計74分19秒で最後のトラックが158秒で
CDを作成すればいいってことかな?

208 :名無しさん@非公式ガイド:2007/04/18(水) 18:54:18 ID:ZebmeBt/
そういう事ですね
トラック1を4301秒・トラック2を158秒とかでもいけるはずです

209 :名無しさん@非公式ガイド:2007/04/20(金) 12:08:30 ID:BaK6ee2y
>>153みたいにドラゴン系とジョーカー系のリスト分かる人いない?

210 :名無しさん@非公式ガイド:2007/04/23(月) 02:37:18 ID:K5yx/CAH
合計時間を調整するためにいいツールないかな?

211 :名無しさん@非公式ガイド:2007/04/23(月) 18:17:39 ID:pHKQP/h+
sound engine freeだな

212 :名無しさん@非公式ガイド:2007/04/23(月) 18:34:55 ID:pHKQP/h+
リストがHDDクラッシュ時に一緒に吹き飛んでさえなければな。
一部過去スレに貼ってあるかもわからない
レアだけでいいなら>>5でいいし

213 :名無しさん@非公式ガイド:2007/04/24(火) 23:20:29 ID:2pshBUAo
MF1でやってるんだがディノしか再生されない・・・

muon〜って奴でwavファイル作成→CdMでイメージ化
これやると.binファイルと.cueファイルができて.cueファイルをデーモンツール使って仮想ドライブに指定
どこが違うのかな?



214 :名無しさん@非公式ガイド:2007/04/24(火) 23:24:35 ID:2pshBUAo
↑描き忘れ
試しに吸い出したゲームの.cueファイルを指定してやってみたらハムができたので
ドライブの指定ミスはないと思います

215 :名無しさん@非公式ガイド:2007/04/24(火) 23:54:17 ID:Mm7X7zQO
上で出ているレアモンを試した結果がディノなら
wavかイメージの作成で失敗したと見る

トラック1 4:31
トラック2 6:29
トラック3 4:31
【アポカリプス】

Wavファイルフォーマット
 44100hz16ビットステレオ
音楽CD作成

216 :名無しさん@非公式ガイド:2007/04/24(火) 23:57:10 ID:Mm7X7zQO
トラック1 4:31
↑ちなみにこれは4分31秒である
虎舞竜のロード

217 :名無しさん@非公式ガイド:2007/04/25(水) 00:07:17 ID:0oKaUfIg
>>215
できました
まだ再生できませんって言われたから多分ディノ以外のができたんだと思います

218 :名無しさん@非公式ガイド:2007/04/25(水) 20:08:14 ID:0oKaUfIg
>>142さんの方法でやってみた結果
1分+2分、1分+17分ではそれぞれ書いてある通りのができましたが
2分+2分でやってみると>>142さんの仮定ではライガーX○○ができるはずが
ゲルXゴーレムができました
3分+2分ではディノXゴーレムが完成
4分+2分ではまたライガーXゴーレム
一気に飛んで17分+2分でやってみたらスエゾーXゴーレム
まとめ
【1分+2分】ライガーXゴーレム
【2分+2分】ゲルXゴーレム
【3分+2分】ディノXゴーレム
【4分+2分】ライガーXゴーレム
【17分+2分】スエゾーXゴーレム

俺が違ってるかもしれないから誰かやる気のある人他にやってみてくれ

219 :名無しさん@非公式ガイド:2007/04/25(水) 20:32:13 ID:0oKaUfIg
【5分+2分】ゲルXゴーレム
【6分+2分】ゴーレムXゴーレム
【7分+2分】ワームXゴーレム
【8分+2分】ナーガXゴーレム
【9分+2分】ゲルXゴーレム
【10分+2分】モノリスXゴーレム

とりあえずこんなもんかな
トラック2が2分だとサブがゴーレム・・・・だと1分+17分でプラントXゴーレムができるのが説明できないし・・・・

【1分+17分】プラントXゴーレム
【2分+17分】スエゾーXゴーレム
う〜む

220 :名無しさん@非公式ガイド:2007/04/25(水) 22:23:42 ID:7IMDjeTm
>>218-219
   _、_
 ( ,_ノ` )      n
 ̄     \    ( E) グッジョブ!!
フ     /ヽ ヽ_//

221 :名無しさん@非公式ガイド:2007/04/25(水) 23:28:45 ID:0oKaUfIg
MF1の表作る時は一番短い分数(ゴーレムだったら2分)にあわせてつくれってことかな?
とりあえずトラック二つ使ったときのサブ表作ってみようかな


222 :名無しさん@非公式ガイド:2007/04/26(木) 10:29:36 ID:+m2KsjnG
まとめのトルネードって間違い?

TRACK 01 AUDIO
INDEX 01 00:00:00
TRACK 02 AUDIO
INDEX 01 42:48:52

一応これで出せたけど

223 :140:2007/04/26(木) 13:54:35 ID:zGSFGk7n
|つ【29分のファイルイメージ化したら純種ガリ出ました】

|ミサッ

224 :名無しさん@非公式ガイド:2007/04/26(木) 18:03:28 ID:XV7Hrabp
  _n
 ( l    _、_
  \ \ ( <_,` )
   ヽ___ ̄ ̄  )  >>223グッジョブ!!
     /    /

225 :名無しさん@非公式ガイド:2007/04/26(木) 19:09:00 ID:MpBIssxf
MF2で普通のモンスター(レアじゃない奴)の表は作らないの?
>>153みたいなのすごい便利なんだが

226 :名無しさん@非公式ガイド:2007/04/27(金) 16:00:31 ID:zFGxVBCA
MF2 21:46 ラスト300s 純血ケンタウロス

227 :名無しさん@非公式ガイド:2007/04/27(金) 16:31:19 ID:7/U05YD3
>>140,142,218-219を参考に調べたら法則があったので書いてみる
>>218-219の方法ではサブがゴーレムから変わらないっぽいので
全体の長さを固定して、cueファイルで1曲目と2曲目に分けてみた
その方法で調べるとサブの系統は1秒間隔で変化して、1分で1週している

228 :名無しさん@非公式ガイド:2007/04/27(金) 16:32:16 ID:7/U05YD3
秒 サブ    秒 サブ    秒 サブ
00 ゴーレム  20 ディノ   40 ナーガ
01 ゴーレム  21 ピクシー  41 ゲル
02 モノリス  22 ハム    42 ディノ
03 スエゾー  23 ライガー  43 ワーム
04 ゲル    24 ナーガ   44 ハム
05 ワーム   25 ライガー  45 ライガー
06 モノリス  26 ゲル    46 モノリス
07 プラント  27 ハム    47 ライガー
08 プラント  28 ガリ    48 ワーム
09 ナーガ   29 ゲル    49 プラント
10 ハム    30 ナーガ   50 ディノ
11 ガリ    31 モノリス  51 ピクシー
12 スエゾー  32 ゴーレム  52 ディノ
13 ワーム   33 スエゾー  53 ガリ
14 スエゾー  34 プラント  54 ゲル
15 ライガー  35 ナーガ   55 プラント
16 スエゾー  36 ハム    56 ディノ
17 モノリス  37 ガリ    57 ピクシー
18 ワーム   38 ゴーレム  58 純正
19 ゴーレム  39 ピクシー  59 ピクシー

こんな感じでサブが変わる
1曲目の長さが00秒のときサブはゴーレムになる
さらに1分で1週するから1分00秒、2分00秒でもサブがゴーレムになる
58秒のときはサブはメインの系統と同じになる
基本的に同じサブ系統でも曲の長さが違うとステータスも変わる
ただし、38秒〜58秒の区間は同じステータスになる
(ディノの場合、20秒と42秒はステータスが異なるが、42、50、52、56、(58)秒のステータスは同じになる)


229 :名無しさん@非公式ガイド:2007/04/27(金) 16:33:22 ID:7/U05YD3
メインの系統は>>218-219と同じで全体の長さで決まる
ディノ :1、2、5分
ライガー:3、6分
ゲル  :4,7,11分
ゴーレム:8分
ワーム :9分
ナーガ :10分
モノリス:12分
スエゾー:13分
ハム  :17分
プラント:18分
ガリ  :30分
ピクシー:71分←70分のwaveファイルから純正ピクシー出そう


230 :名無しさん@非公式ガイド:2007/04/27(金) 16:34:20 ID:7/U05YD3
まとめるとこんな感じ
     メイン(Byte)|サブ(秒)
ディノ : 10,584,000|20 42
ライガー: 31,752,000|15 23 25 45
ゲル  : 42,336,000|04 26 29 41
ゴーレム: 84,672,000|00 01 19 32 38
ワーム : 95,256,000|05 13 18 43
ナーガ :105,840,000|09 24 30 35 40
モノリス:127,008,000|02 06 17 31 46
スエゾー:137,592,000|03 12 14 16 33 (58)
ハム  :179,928,000|10 22 27 36 44
プラント:190,512,000|07 08 34 49
ガリ  :317,520,000|11 28 37 53
ピクシー:751,464,000|21 39 59

たとえば
img 105,840,000Byte
TRACK 01 AUDIO
INDEX 01 00:00:00
TRACK 02 AUDIO
INDEX 01 00:20:00
だとメインがナーガ、サブがディノになる

純正スエゾーを出すには
img 137,592,000Byte
で1曲目の長さを03、12、14、16、33、58秒のどれかにする
分は何分にしても同じだと思う

231 :名無しさん@非公式ガイド:2007/04/27(金) 16:41:23 ID:AUwCcN1w
イメージの作り方がいまひとつ理解に苦しみます。
このスレとまとめサイトを見つつも4時間粘ってみたのですがうまくできません。
ヴァージアハピの作り方なのですが何がいけないのでしょうか?
1 CreateFileBookで269,892,000byteを作成→名前をvjhp.imgに変更。
2 muon〜で745sと785sのwavを作る。
3 CdManipulatorのデータトラックの構造にvjhp.imgを置く。
4 同様にトラックリストに745S→785sの順番で置きイメージの作成をする。
上で作成したイメージを仮想ドライブに読み込ませて使用すると何故かラウーが生まれてきます。

232 :名無しさん@非公式ガイド:2007/04/27(金) 16:44:26 ID:nul9RWuL
>>231
最後が745秒だろ?

233 :名無しさん@非公式ガイド:2007/04/27(金) 16:54:39 ID:AUwCcN1w
>>232
785s→745sでやってみましたがだめでした。
またラウーが・・・

234 :名無しさん@非公式ガイド:2007/04/27(金) 16:59:14 ID:nul9RWuL
>>233
じゃぁ他のソフト使えよ

235 :名無しさん@非公式ガイド:2007/04/27(金) 17:04:40 ID:AUwCcN1w
>>234
今日一日粘ってみてだめなら諦めます。
どこぞの動画でマーケットのロードランナーで4大制覇とかありましたがへたれの私にはとても・・・

236 :名無しさん@非公式ガイド:2007/04/27(金) 18:29:03 ID:zFGxVBCA
どーせCDマスタリングの所で データトラックの構造 にでもぶち込んでたんじゃねーの?
トラックリストにちゃんと入ってる?

237 :名無しさん@非公式ガイド:2007/04/27(金) 18:38:14 ID:zFGxVBCA
どうしても出来なかったら、うpしといたから落としてみな。
ttp://onishibata.ddo.jp/2/download.php?id=00067 pass:mf2

238 :名無しさん@非公式ガイド:2007/04/27(金) 19:37:38 ID:AUwCcN1w
>>236,237
データトラックの構造とトラックリストの両方で試してみたのですがだめでした。
親切にうpしてもらったファイルでやってみてもラウーが・・・
もしかしたら仮想ドライブの設定がいけないんでしょうか。

239 :名無しさん@非公式ガイド:2007/04/27(金) 20:20:06 ID:nul9RWuL
>>238
ドライブにCD入れっぱなしになってないか確認
仮想じゃなくて現実の

240 :140:2007/04/27(金) 20:20:35 ID:7eH4uYkY
>>227さん
お疲れ様です
自分の提供したデータが少しでも参考になったようでよかったです
しかし、今までのデータを見る限りでは特殊再生モンスターは出てきそうにないですね
通常再生モンスターとは別の法則でもあるのかな・・・

>>231さん
無音WAVEで作成したファイルの設定が違ったりとかはないですか?
kHZ・ビット・モノラルorステレオが違うだけで再生されるモンスターも変わってしまったと思いますし


241 :名無しさん@非公式ガイド:2007/04/27(金) 20:37:00 ID:AUwCcN1w
>>239
ドライブには何も入っていないです。
ちなみに仮想はデーモン使ってます。
>>240
左から44100・16・ステレオですよね?
どうやってもラウーが出てくる・・・もうトラウマになりそうです。

242 :140:2007/04/27(金) 21:21:07 ID:7eH4uYkY
よく見たら、>>231の時点でファイルの作り方違ってますね
次の手順で再生できるはずです

1 CreateFileBookで269,892,000byteを作成→名前をvjhp.imgに変更。
2 テキストファイルを新規作成してその中に
FILE "vjhp.img" BINARY
TRACK 01 AUDIO
INDEX 01 00:00:00
TRACK 02 AUDIO
INDEX 01 13:05:00
をコピペして、テキストファイルの名前をvjhp.cueに変えてtxtファイルをcueファイルに変換する
3 後はimgとcueファイルを同じ場所に置いて普通にゲーム内で円盤石再生でvjhp.cueを読み込む

CreateFileBookでファイルを作る場合は、無音WAVE使わないはずなので何かおかしいとは思ってたんですがw

243 :名無しさん@非公式ガイド:2007/04/27(金) 22:10:19 ID:c0pu4ZRj
>>241
>>39-43は参考にならんかね。
まあ当然読んでるだろうが。

244 :名無しさん@非公式ガイド:2007/04/27(金) 22:19:17 ID:AUwCcN1w
>>242
CDに焼いて実機で試してみたらヴァージアハピが出ました。
でもエミュだとやはりラウーになります・・・
>>243
スレに一通り目を通しましたが解決策なしで手詰まりです。

なんだか私のためにすいません。
これ以上スレ汚しをしたくないのであとは自力で何とか頑張ってみます。
協力してくださった皆様、お力添えどうもありがとうございました。

245 :名無しさん@非公式ガイド:2007/04/27(金) 23:33:03 ID:6BpWvPVr
エミュの方のドライブ設定ちゃんとしてる?
俺も一度CDから再生したモンスターがそのあと仮想ドライブの方でも何度も出てきた経験が

246 :ラウー恐怖症:2007/04/28(土) 03:39:40 ID:oxivzA2M
244です。
エミュ本体の設定から全てやり直し、
デーモンのドライブ設定を1→4にしてGドライブで読み込むようにして、
236さんのデータで再生してみたところ無事生まれました。
色々とご迷惑おかけしました。
皆さん優しくて嬉しかったです、なんていう暖かいスレ住人!

247 :名無しさん@非公式ガイド:2007/04/28(土) 08:25:32 ID:pz/ESiJ0
まあまあ ラウーでも強いじゃないか!な!

248 :名無しさん@非公式ガイド:2007/04/28(土) 11:21:17 ID:qv4qSmZN
>>227-230
名人に認定

249 :名無しさん@非公式ガイド:2007/04/28(土) 14:13:15 ID:d8qJdw0n
MF1
【ゲイシャノサウラ】60:49:00【235】
【アジャパノドン】17:50:00【292】
【ブリーフマン】58:26:00【251】
【ギンギライガー】13:24:00【283】
【ボーダー】56:24:00【173】
【トリコ】51:45:00【88】
【ワクセイ】09:45:00【293】
【クマドリー】58:19:00【230】
【ホッケー】49:19:00【114】
【シロクロ】58:27:00【358】
【アオゾラ】57:33:00【218】
【カリビアン】45:47:00【278】
【トカイノハナ】20:04:00【286】
【ラストバンチョー】25:43:00【178】
【マグネティックス】45:52:00【110】
【センシュ】15:18:00【225】
【トガリア】10:13:00【210】
【ムッキーニ】11:23:00【255】
【オ・ヤージ】73:33:00【32】
【ナンゴクラクガキ】51:05:00【29】


250 :名無しさん@非公式ガイド:2007/04/28(土) 14:13:45 ID:d8qJdw0n
【サンプラザ】
img 51,431,184Byte
TRACK 1 AUDIO
INDEX 1 00:00:00

【アルデバラン】
img 384,203,904Byte
TRACK 1 AUDIO
INDEX 1 00:00:00
TRACK 2 AUDIO
INDEX 1 32:37:49


251 :名無しさん@非公式ガイド:2007/04/28(土) 14:58:59 ID:dXIW+bwa
CD情報お役立ちってところを見て NOKKO/人魚 でマーメイドを作ろうと思って失敗したw
最初からクリスタルレインを覚えてるらしいから是非作ってみたかったんだが。

ちなみに出てきたのはアーケロ×ドラゴンだった。

252 :140:2007/04/28(土) 15:58:50 ID:aOisjatZ
>>249-250
大量のレアモン乙です

253 :名無しさん@非公式ガイド:2007/04/28(土) 23:48:06 ID:d8qJdw0n
MF1
【ガトリングブロー】11:06:00【261】

こういうサブが???じゃない特殊モンスターって需要あるのかな?
それと↑と↓のどっちの書き方がいいんだろう

【ガトリングブロー】
img 117,482,400Byte
TRACK 01 AUDIO
INDEX 01 00:00:00
TRACK 02 AUDIO
INDEX 01 04:21:00

254 :名無しさん@非公式ガイド:2007/04/29(日) 01:49:27 ID:uawF353Z
スプラッターを再生しようと思ったんだが、何故かヨロイモッチーがでた。

やり方は>>72と同じだから大丈夫だったと思うんだが・・。
デーモンツール使ったし、ドライブの設定も変えたんだが。

再生時間はcdmでマスタリングするとき左下の数字を参考にすればいいんだよな?

255 :名無しさん@非公式ガイド:2007/04/29(日) 02:13:15 ID:62kWzhRQ
>>254
作る前の秒数を自分で足し算

256 :名無しさん@非公式ガイド:2007/04/29(日) 02:22:49 ID:uawF353Z
>>255
mjdk!?
ありがとう、やってみる。

257 :名無しさん@非公式ガイド:2007/04/29(日) 02:38:09 ID:uawF353Z
出来なかった。。
500s+500s+500s+300s+465s=37m45s
でやったんだが、何か問題でもあるのか??(´・ω・`)


258 :名無しさん@非公式ガイド:2007/04/29(日) 04:11:09 ID:62kWzhRQ
>>257
小数点あるから1秒ずらしたのもやった?

259 :名無しさん@非公式ガイド:2007/04/29(日) 04:28:23 ID:6+yRXsEA
このスレのどこかに無音のファイルあったと思うんだけど、それ使ってる?
その無音ファイルは小数点以下ずれてるけど、気にしないで出来るようになってるよ。

260 :名無しさん@非公式ガイド:2007/04/29(日) 05:47:58 ID:NOa0xlHM
>>257
500s+500s+500s+300s+465s=37m45s

600s+600s+600s+465s=37m45s
のどっちでも出たよ
>>5は見た?

261 :140:2007/04/29(日) 07:01:54 ID:nuwOVvHw
>>253
全種のレアモンが再生できれば後は合体でどんなモンスターでも作れるけど
それでもたまにMAIN×SUBのモンスターの需要があるみたいだからいいんじゃないかなと
合体で作った方が潜在能力が上がって育てやすくなりますけどね


表記方法は下の方がいいと思う
コピペしてcueファイルつくればいいだけだから楽ですし

262 :名無しさん@非公式ガイド:2007/04/29(日) 13:01:17 ID:VyLnXBHQ
>>261thx
【ドラゴン】
img 530,787,600Byte
TRACK 01 AUDIO
INDEX 01 00:00:00
TRACK 02 AUDIO
INDEX 01 05:52:00

【ヘンガー】
img 682,244,640Byte
TRACK 1 AUDIO
INDEX 1 00:00:00
TRACK 2 AUDIO
INDEX 0 61:25:45
INDEX 1 61:27:45

【ゴースト】
img 716,536,800Byte
TRACK 01 AUDIO
INDEX 01 00:00:00
TRACK 02 AUDIO
INDEX 01 05:40:00

263 :名無しさん@非公式ガイド:2007/04/29(日) 13:34:48 ID:uawF353Z
>>258
やりました。でも出ません。。

>>260
見ました。最後に465sのファイルをもってくればいいんですよね??

>>259
使ってます。でも出来ないんです。

エミュのCD-ROMの設定で、デーモンが支配してるドライブを選択すればおkだよね?
デーモンの設定は特にいじってないんだが、何か設定変える必要あるの??

264 :名無しさん@非公式ガイド:2007/04/29(日) 13:56:33 ID:uawF353Z
出来ました!
マスタリングするときにデータの構造タブでイメージ作成してたから出来なかったっぽい
もう一度スレとまとめサイト見返してたら気付いたよ・・。

親切に教えてくれた人ありがとうございました!

265 :名無しさん@非公式ガイド:2007/04/29(日) 21:26:55 ID:Hglboa96
レアモンまとめサイトが文字化けしまくってるのは俺だけか?
どのコード当ててもピクシー種の時間が見れないんだが。

266 :名無しさん@非公式ガイド:2007/04/29(日) 21:29:41 ID:zY5DYd5e
お前だけ

267 :名無しさん@非公式ガイド:2007/04/29(日) 21:35:52 ID:Hglboa96
そうか……理由分からないからとりあえず再起動してくる。

268 :名無しさん@非公式ガイド:2007/04/30(月) 14:43:20 ID:bQgj7iZT
【ハエツキ】
img 298,998,000Byte
TRACK 01 AUDIO
INDEX 01 00:00:00
TRACK 02 AUDIO
INDEX 01 04:28:00

269 :名無しさん@非公式ガイド:2007/05/01(火) 01:36:47 ID:Iqr87lrr
>>262,268
    ∩
    _( ⌒)     ∩__
  //,. ノ ̄\   / .)E)
 /i"/ /|_|i_トil_| / /    / ̄ ̄ ̄ ̄ ̄
 |ii.l/ /┃ ┃{. / /   <  good job!
 |i|i_/''' ヮ''丿i_/    .\_____
 i|/ ,ク ム"/ /
 |(  ヽ -====-\
 ゞヽ     三  ) ))
   \ヽ      ノ
    )     ̄|
   /     j ,イ


270 :名無しさん@非公式ガイド:2007/05/02(水) 20:30:27 ID:odRjL49S
ここでMF2のリストって需要あんのかね? 見た感じMF1ばっかりなんだが

271 :名無しさん@非公式ガイド:2007/05/02(水) 20:32:35 ID:XqQ7aM0T
MF2のはほとんどでてるんじゃね?
フツモンのリストだったら欲しいかも
>>153みたいな

272 :名無しさん@非公式ガイド:2007/05/02(水) 20:58:10 ID:ugE2QOfu
>>271 把握した。
明日休みだし、フツモンリストでも作ってくるわ
そういえば、無音WAVって圧縮すると確かすげーちっこくなるんだったか

273 :名無しさん@非公式ガイド:2007/05/02(水) 21:27:41 ID:XqQ7aM0T
>>272
137Mが80Kに
SUGEEEEEE

274 :名無しさん@非公式ガイド:2007/05/03(木) 15:28:03 ID:7DrHfuDQ
MF1
【ゾンビ】
img 736,836,912Byte
TRACK 01 AUDIO
INDEX 01 00:00:00

【タイヤン】
img 750,883,056Byte
TRACK 01 AUDIO
INDEX 01 00:00:00
TRACK 2 AUDIO
INDEX 0 13:14:16
INDEX 1 13:16:16

サターンのときめもって見たことないな

275 :名無しさん@非公式ガイド:2007/05/03(木) 17:19:57 ID:YPiT3GIX
セイラーか。
あんなもんいるのかい?

276 :名無しさん@非公式ガイド:2007/05/03(木) 18:04:07 ID:rUcGv/qA
フツモンリスト作ろうと思ったけど、コレ結構時間かかるのな。
とりあえず純血だけ抽出。

純血コロペンドラ 34:02:00 - 1000s
純血メタルナー 50:23:00 - 222s
純血ラウー 47:17:00 - 222s
純血ゴースト 8:19:00 - 285s
純血ライガー 4:49:00 - 90s
純血ヘンガー 60:45:00 - 124s

他は ttp://up3.viploader.net/mini/src/viploader134922.rar.html Pass=MF2

277 :名無しさん@非公式ガイド:2007/05/03(木) 18:14:42 ID:prGYCIgt
GJ

278 :名無しさん@非公式ガイド:2007/05/03(木) 18:28:16 ID:YPiT3GIX
当時はレア出すのに躍起だったから
一秒ごとにイメージ作成して調べた
結局レアのCDの構成を真似する所に落ち着いたが

279 :名無しさん@非公式ガイド:2007/05/03(木) 20:57:09 ID:b2Xqq2qs
パスあってる?

280 :名無しさん@非公式ガイド:2007/05/03(木) 21:07:02 ID:prGYCIgt
小文字

281 :名無しさん@非公式ガイド:2007/05/03(木) 21:15:39 ID:b2Xqq2qs
>>276これはGJ
>>280どうも

282 :名無しさん@非公式ガイド:2007/05/03(木) 22:36:25 ID:VSlSUzUW
2はメインが大体時間の範囲で固まってるから
全部調べる気なら総時間を一秒ずつ変えて一々調べたほうが良かないか?

283 :名無しさん@非公式ガイド:2007/05/03(木) 22:51:37 ID:eJ9P7/z3
コマンドライン用で[分:秒]の形式で時間指定してWAV出力できる
プログラム書いてみたんだけど需要ある?

284 :名無しさん@非公式ガイド:2007/05/03(木) 23:00:24 ID:rUcGv/qA
>>282
そいつは盲点だった。まーいい加減にぶち込んで何が出てくるかなー?
って試してただけだしな。一定の範囲が解れば楽勝みたいね
何かリクエストあれば優先的に調べるけど、なんかある?

285 :名無しさん@非公式ガイド:2007/05/03(木) 23:36:57 ID:b2Xqq2qs
ウンディーネとバジャール、グジラたのむ 派生少ないけど

286 :名無しさん@非公式ガイド:2007/05/03(木) 23:41:05 ID:rUcGv/qA
ちょwwピンポイントで難しいの出してくれるなw
とりあえずグジラとウンディーネを再生できるように――
lllorz えーと、ホッパー育てなきゃな。温泉掘ってねぇ……

287 :名無しさん@非公式ガイド:2007/05/03(木) 23:51:50 ID:bdlrnc86
700Mとかでかいサイズのファイル1個にcueシート差し替えでいくつもモンスター出せるほうが効率良い

>>283
あるっちゃある

288 :名無しさん@非公式ガイド:2007/05/03(木) 23:55:22 ID:YPiT3GIX
ttp://gamdev.org/up/img/5149.zip
解析始めた頃にうpした品がまだ残ってた
なにしろ表記が古い
ちなみにドラゴンセット

289 :名無しさん@非公式ガイド:2007/05/04(金) 00:07:43 ID:lInQXlff
ttp://gamdev.org/up/img/5197.zip
グジラっぽい当時のCDイメージ

290 :名無しさん@非公式ガイド:2007/05/04(金) 00:13:22 ID:BeVEdQIo
http://up3.viploader.net/mini/src/viploader135032.zip
自分で使ってみたけどなんかえらく速い。
テストついでにデュラハンとロブリッターを出してみた。

デュラハン 29:00.00 - 29:00.00
ロブリッター  31:05.00 - 02:46.00

要無音WAVEファイルメーカー
http://www.vector.co.jp/soft/win95/art/se073411.html

291 :283:2007/05/04(金) 00:15:20 ID:BeVEdQIo
名前入れ忘れてた
>>290 = >>283

292 :名無しさん@非公式ガイド:2007/05/04(金) 00:19:24 ID:lInQXlff
ttp://gamdev.org/up/img/5201.zip
HDDがクラッシュした時にリストは全て吹き飛んだが
去年ゲムデブうpロダに上げた奴は生きていた
旧表記だから誰か直して欲しい
グジラ系・ウンディーネ系・バジャール系全部は出てないが
前後一秒ずつ掘れば出てくるかと思う

293 :名無しさん@非公式ガイド:2007/05/04(金) 10:22:49 ID:Jx9gnaTF
>>292 GJ!
こっちも色々調べてみたんだが、何やら法則があるっぽいね。
例えばジール種のレア(ピテカン 68:33:07)のbin作って、
cueシートをいじると、トラックの秒数が変わる為に他のモンスターが出てくるんだけど

その際、10種類のモンスター及びその派生しか出てこなくなる。
1分の幅で種族が変わり(例:スエゾー種→アローヘッド種)
10種交代が完了すると、後は延々とループするみたいだね

294 :293:2007/05/04(金) 10:35:56 ID:Jx9gnaTF
ピテカンのBinを弄った結果、以下の種族が出た
CUEシートを変更するだけでモンスター変更が出来るから、調べた分だけ下にうp

ホッパー種   18:58:00 〜 19:57:00
ピクシー種    17:58:00 〜 18:57:00
ハム種     16:58:00 〜 17:57:00
アーケロ種   15:58:00 〜 16:57:00
ゲル種      14:58:00 〜 15:57:00
ヘンガー種    13:58:00 〜 14:57:00
ケンタウロス種 12:58:00 〜 13:57:00
モッチー種   11:58:00 〜 12:57:00
アローヘッド種 10:58:00 〜 11:57:00
スエゾー種   09:58:00 〜 10:57:00

http://onishibata.ddo.jp/2/download.php?id=00076 pass-mf2

295 :293:2007/05/04(金) 12:33:13 ID:Jx9gnaTF
>>285 とりあえずグジラとバジャール確認できた。人魚は確認できず

ttp://onishibata.ddo.jp/2/download.php?id=00077 pass=mf2

グジラの純血だけ何故か出てこない上、ネンドロばっかりでてきた
バグ再生使ったから、もしかしたらネンドロ=純血なのかも??

10種選ばれると書いたけど、統一性は無い様子
Bin作っても法則が解らないからほぼランダムに近く、結論は沢山作って試すしかない

296 :名無しさん@非公式ガイド:2007/05/04(金) 15:51:28 ID:E/XO9ivN
去年はテーブル説というのがあった
今年はもっと確実な説が登場しそうだな

297 :名無しさん@非公式ガイド:2007/05/05(土) 00:28:40 ID:OhUHpmOk
純正人魚はん
総時間26:03:00
最後938s
表記他に合わせるのマンd(ry

フツモンは持ってるCD、または>>16で時間がわかるCDから掘っていくことをオヌヌヌ

298 :名無しさん@非公式ガイド:2007/05/05(土) 03:49:46 ID:oD7B8lrn
これはお疲れ様です。
せっかくなので人魚育ててみますか

299 :名無しさん@非公式ガイド:2007/05/07(月) 18:16:43 ID:jVcHEQ1N
劣化カスミ
185749200バイト 00:13:00

まとめサイトのやつとはステータスと所有技が違う
正規カスミ 100 158 141 170 110 118 タッチ・キック
劣化カスミ 103 098 067 174 198 062 タッチ・キック・なげキッス

300 :23:2007/05/07(月) 18:38:03 ID:EVhnWIjB
まだこのスレあったのか ナツカシス
みんな頑張れ 超頑張れ

301 :名無しさん@非公式ガイド:2007/05/09(水) 22:26:37 ID:PP3AXz2o
>>294-295
ひとつバカかもしれんことを聞くが、そのファイルって
「binファイルとお好みのcueファイルを同時にCD-RWに書き込むことによって」
お好みのcueに対応したモンスターを再生できるCD-RWが作れる…ということでいいのだろうか?

302 :名無しさん@非公式ガイド:2007/05/09(水) 22:58:07 ID:E9+3eqRz
同時に書き込む話では無い
詳しくはCD−R系の板でも見れば良い
ちなみにCD−RWだと上手くいかない

303 :名無しさん@非公式ガイド:2007/05/09(水) 23:01:43 ID:PP3AXz2o
>>302
d、CD−Rとかは自分の勘違いだった。

304 :名無しさん@非公式ガイド:2007/05/09(水) 23:11:17 ID:h0GMdQyT
RWでもエミュなら再生バグ使えば再生できると思う
実機は知らん

305 :名無しさん@非公式ガイド:2007/05/10(木) 03:33:12 ID:RAwpt34z
まぁエミュ使うんならDaemon tool の方が良いと思われ
むしろDaemon Tool用に作ったからね。知識あるなら焼いてもできるけど

またチマチマと各種派生のリスト作ってるよ(レアを除いて)
できたらうpするわ

306 :名無しさん@非公式ガイド:2007/05/10(木) 04:48:36 ID:eXyowAAA
エミュならRWつかえるよ つかう意味が無いけど

307 :名無しさん@非公式ガイド:2007/05/10(木) 23:24:14 ID:9y0cGmbG
>>305
是非おながいします

308 :名無しさん@非公式ガイド:2007/05/11(金) 00:01:22 ID:CjFfZI7p
>>305
がんばれ
超がんばれ

309 :名無しさん@非公式ガイド:2007/05/11(金) 13:55:57 ID:jMbTo+EH
超面倒だね、この調べるの。ロードランナーだけで30分かかるとかふざけんなwww
とりあえず Daemon Toolで読み込むだけで目当てのモンスター再生ファイル作ったから
欲しい人はどぞ。再生できるのは、レアを除いて以下の種族のみ

ゲル グジラ ナーガ ワーム ラウー スエゾー ヘンガー
モッチー ライガー モノリス アーケロ ホッパー
アローヘッド コンペンドラ バジャール ネンドロ
ロードランナー ビークロン ケンタウロス

計19種族、169匹再生可能。
もしcueファイルでどっか間違ってたら同封してる出現リストを
参考に変更してください。報告あれば修正しておくから

ttp://up3.viploader.net/mini/src/viploader136913.zip.html pass=mf2


310 :名無しさん@非公式ガイド:2007/05/11(金) 14:33:54 ID:jMbTo+EH
調べる過程で解ったこと。(MF2)

1.ゲル・ライガー・モノリス・スエゾーなど、種族の総数が一致している場合、
  派生が出てくるパターンが一致する。何秒で別の派生が出るという一致。
  (純血含め12匹だと、01/ 02/ 03/ 04/ 05/ 08/ 10/ 12/ 14/ 15/ 16/ 24/秒で全て揃う)

2.1の条件を満たし、SUBが同じ場合。
  秒数によってSUBが変わることは無い

2.ただし1の条件を満たしても、SUBが違う場合、
  種族の総数による各個体が出るパターンは一致してもSUBが違う。
  (ビークロンとケンタウロスは、純血を含め9匹。でも秒数によってSUBが違う)

……('A`)上手く説明できない
これでわかんないなら、上のtxt見て納得して下さい

311 :名無しさん@非公式ガイド:2007/05/11(金) 16:11:24 ID:oAsFftmB
>>310
お疲れ様です。
早速頂きました。ありがとうございます。

312 :名無しさん@非公式ガイド:2007/05/12(土) 21:25:14 ID:zTKGs4SD
俺今日からレアモン作ろうと思ってる新参なんだけど、
>>5のテンプレのサイト見たんだけど、まだちょっと意味が分からないところがあるんだよね。
「最後のトラックに指定するファイル」は分かるんだけど、その前のトラックは一体何秒に指定すればよいんだ?
あとManipulatorに入れる「部品」というのは無音WAVEで作成したファイルという事でおk?

313 :名無しさん@非公式ガイド:2007/05/12(土) 21:44:10 ID:N4A/+Lxj
ポアゾン 283 17:43:03 ←17分43秒から283秒引いた時間に指定
おk

314 :名無しさん@非公式ガイド:2007/05/12(土) 21:49:36 ID:zTKGs4SD
>>313
d
早速試してみる

315 :名無しさん@非公式ガイド:2007/05/13(日) 00:21:14 ID:TR+pjWyy
それとテンプレのサイトに書かれている「イメージ作成」と「CD書き込み」の事なんだけど、何で2つも載せてあるんだ?
普通「CD書き込み」だけで良い気がするんだけど?
もしかしてこの「イメージ作成」の意味は「バックアップ作っとけ」という意味なのか?

316 :名無しさん@非公式ガイド:2007/05/13(日) 01:18:09 ID:xA4OEP5s
>>315
それは違う。
イメージ作成 → データーだけの仮想CD(PCのみ読み取り可能)
CD書き込み → そのデーターが入った実物(実機、PCどちらでも読み込める)

実機はCDが必要だけど、エミュレーターならデーターだけで可能ということ
だから各々の環境に考慮して二つに分けられてる

317 :名無しさん@非公式ガイド:2007/05/13(日) 02:20:28 ID:2ZR+xpD3
>>316
d

318 :名無しさん@非公式ガイド:2007/05/13(日) 10:19:10 ID:liOTmDE8
一つ質問なんだが
CDにイメージ焼くときってbinとcueの二つをCDに焼けばいいのかな?

319 :名無しさん@非公式ガイド:2007/05/13(日) 13:51:18 ID:2ZR+xpD3
ちょwこれwwwwwwww

http://iminull.zouri.jp/rare/

320 :名無しさん@非公式ガイド:2007/05/13(日) 15:52:45 ID:DwTXTJQG
>>319
宣伝乙

321 :名無しさん@非公式ガイド:2007/05/13(日) 16:19:21 ID:Dm4nw1FV
リンクからして
mfvipの人
そしてIRC組と見た

322 :名無しさん@非公式ガイド:2007/05/13(日) 23:29:28 ID:eyzLkTmP
ところで素朴な疑問なんだが、収録時間で何が出るか大体書いてるけど、
市販のCDじゃムー(デジタルミュージックパワー除く)とかはもう望み薄なのかね?

323 :名無しさん@非公式ガイド:2007/05/14(月) 00:05:38 ID:p2Q4KDY3
望み薄だな
調べる気にならん

324 :名無しさん@非公式ガイド:2007/05/14(月) 01:02:58 ID:zGMAl7OS
>>322
ここみたいに蔦谷に行ってみたらどうだ?

300 :なまえをいれてください :sage :2006/04/07(金) 17:12:31 (p)ID:GF2AQL0G(5)
298 :なまえをいれてください :sage :2006/04/07(金) 16:58:14 (p)ID:r7p4xa4m(4)
>>297
Muu届いたのか?
注文は出来ても
あとで「ありませんでした」の電話がかかってくる可能性も捨てきれないがな。
>>298
いや大丈夫頼めた。
具体的に言うと、注文した時その店員がもう廃盤しているので、そうなるとじゃあこれから全国のTSUTAYAさんの
ところにこのCDがまだ残っているか聞いてみて、もし残っていたらこちらに届けてもらう形になると言われて、
で、帰って少し経ってTSUTAYAから電話で在庫ありましたと聞かされた。

325 :名無しさん@非公式ガイド:2007/05/14(月) 02:06:51 ID:wVy6ORgz
俺も>>318と同じでどっち焼けばいいかわからん
binだけ焼くの?

326 :名無しさん@非公式ガイド:2007/05/14(月) 03:21:48 ID:jIo6j1Wc
>>325
>>192
imgになってるが別にbinでもOK

327 :名無しさん@非公式ガイド:2007/05/14(月) 15:22:37 ID:YE2B9+S/
MF2 28種 274匹 追加モンスター以下の通り passはいつもの

アーケロ ・ ダックン ・ ピクシー ・ ドラゴン ・ ハム ・
ゴーレム ・ ヒノトり ・ プラント ・ チャッキー 

ttp://up3.viploader.net/mini/src/viploader137958.rar.html

CD焼き焼きとか、エミュ関係を説明するのがテラ面倒だったので
一覧のリストと一緒に マニュアルみたいなものを同封しておきました
間違っているかもしれないので、そしたら自己解決ヨロ

328 :名無しさん@非公式ガイド:2007/05/14(月) 15:33:28 ID:L7+R9/xL
これは感動した

329 :名無しさん@非公式ガイド:2007/05/15(火) 20:09:01 ID:/iQLNXmJ
この偉業に濡れた

330 :名無しさん@非公式ガイド:2007/05/15(火) 21:16:16 ID:tlNZ1Eih
passないっすよね

331 :名無しさん@非公式ガイド:2007/05/16(水) 11:57:33 ID:M3Wb9Zsd
>>327
GJ

332 :名無しさん@非公式ガイド:2007/05/17(木) 07:03:09 ID:aWEEj2rk
13:09:07が13時間9分7秒かと思ってしばらく苦戦したぜ

333 :名無しさん@非公式ガイド:2007/05/17(木) 16:05:58 ID:AAeQRLsB
CDの常識で考えてくれ

334 :名無しさん@非公式ガイド:2007/05/18(金) 17:13:05 ID:rOD3su+h
>>57と同じでMF1でライガーしか出ません
純粋にCDを使って再生するにはどうすればいいのでしょうか?
MF1はCDManipulatorで仮想ドライブ作って起動してます。


335 :名無しさん@非公式ガイド:2007/05/18(金) 23:58:36 ID:U4cmAlUU
このスレに他に林檎ユーザーの方います?
いいライティングソフトが見つからなくて困ってる。

ポワゾンでためしたらウロコゲルがでてきた・・・orz

336 :名無しさん@非公式ガイド:2007/05/19(土) 19:01:11 ID:vGlVLPFD
>>327でグループAのファイルしかCDManipulatorで
CD−Rに書き込めないんだけど何かアドバイスしてほしい
例えば、グループEの純血プラントをCDに焼こうとすると
cue−sheetエラー;解析不能の命令です・ヘンガー種
ってメッセージがでるんだ…

337 :名無しさん@非公式ガイド:2007/05/19(土) 19:49:20 ID:UdiUOaiH
例えばグループBのグジラ×ゲルだが

FILE "006.bin" BINARY
TRACK 01 AUDIO
INDEX 01 00:00:00
TRACK 02 AUDIO
INDEX 01 09:04:00

の下になんかメモ書きがあるだろ?
それを全部消せば良い

338 :名無しさん@非公式ガイド:2007/05/19(土) 20:47:49 ID:vGlVLPFD
>>337
トン!
これで冒険用のプラント育てられる(`・ω・´)

339 :名無しさん@非公式ガイド:2007/05/20(日) 18:25:47 ID:4cEry28i
今更だがDaemonの甘い罠に掛かるスレだな

340 :名無しさん@非公式ガイド:2007/05/20(日) 23:45:52 ID:GOfHA7xe
罠?

341 :名無しさん@非公式ガイド:2007/05/21(月) 16:24:48 ID:EkyNo4Ev
daemon search ber←daemon toolの名前通りの極悪非道を発揮するシステム
いわゆる一つのスパイゾルゲ

342 :名無しさん@非公式ガイド:2007/05/21(月) 16:31:18 ID:ddK5eHJT
アドウェア同根してるって明言してるし3.XX系列
も公開してるから極悪非道でも無いと思うが

343 :名無しさん@非公式ガイド:2007/05/21(月) 19:51:51 ID:Xw/BlHMM
要するに 今度から 自 己 責 任 の明文化と
スパイウェアが入ってないver3.41のD-Tool入れればおk? って事だな

344 :名無しさん@非公式ガイド:2007/05/21(月) 19:59:46 ID:EkyNo4Ev
だな。

345 :名無しさん@非公式ガイド:2007/05/21(月) 20:36:21 ID:cQIANa2M
4.08\(^o^)/

346 :名無しさん@非公式ガイド:2007/05/23(水) 14:19:38 ID:qJQGp6d5
MF2 39種 333匹 パスはいつもの

追加モンスター……って全部だから別に良いよね
まにゅあるらしきもの変更、ついでにりーどみー追加。
D-Tool3.47追加(日本語パッチ追加)、スパイウェア除去ソフト追加。

ようやく終わりました。えぇ、全種派生そろってます。多分
レアモンだけは入っていないので悪しからず ノシ

http://up.viploader.net/src/viploader21888.rar.html

347 :名無しさん@非公式ガイド:2007/05/23(水) 17:33:59 ID:xpquQEzS
>>346
超おつ

レアモンは
http://iminull.zouri.jp/rare/
の下の方にある一括DLで揃うのかな

348 :名無しさん@非公式ガイド:2007/05/23(水) 17:36:49 ID:N/XFF/5V
>>347
宣伝乙

349 :名無しさん@非公式ガイド:2007/05/23(水) 17:46:18 ID:Dpvr3Ppr
>>347のサイト何気に凄い。
モンスターカードのページ見てるだけでお腹いっぱいになる。

350 :名無しさん@非公式ガイド:2007/05/23(水) 17:57:48 ID:N/XFF/5V
勝手に画像使用して良い物なのかね?

351 :名無しさん@非公式ガイド:2007/05/23(水) 18:22:11 ID:uwqiK2q0
>>346 まさか全部そろうとはww 乙!

352 :名無しさん@非公式ガイド:2007/05/23(水) 18:47:14 ID:XVXk+PUQ
>>350
今更テクモが文句言うとは思えんが。
おまえら乙。

353 :名無しさん@非公式ガイド:2007/05/23(水) 20:31:03 ID:qfH8SNkz
全モンスターできるようになると、今度は寿命がどこで判定されてるのかとかが気になるなぁ

354 :名無しさん@非公式ガイド:2007/05/24(木) 03:12:30 ID:klrWM9d8
>>346
超乙。なんだがロダが休業中になってる(´・ω・`)

355 :名無しさん@非公式ガイド:2007/05/24(木) 03:58:53 ID:GR9iw6OB
>>353
もし寿命や初期技をコントロールできるようになったら凶悪だな

356 :346:2007/05/24(木) 07:48:39 ID:b7wX1E5b
http://onishibata.ddo.jp/20/download.php?id=00261

うpロダが先のタイーホで死んでるね、他も結構お休み中
てな訳で別なところみつけてきました。パスかかってるんでヨロシク

357 :名無しさん@非公式ガイド:2007/05/24(木) 11:56:19 ID:klrWM9d8
神キタ━(゚∀゚)━!!!!!
txt読んで大変さをひしひしと感じましたよ。まじ乙
あと圧縮率にワロタw

358 :名無しさん@非公式ガイド:2007/05/25(金) 02:07:53 ID:/2LqNXKG
>>347
そこギンゾーがなくてこまってる

359 :名無しさん@非公式ガイド:2007/05/25(金) 04:40:18 ID:E+sjsVcr
http://www.uploda.net/cgi/uploader4/index.php?file_id=0000013699.rar

ギンゾーとガトリング覚えてるメタルゲル置いておきますね

360 :名無しさん@非公式ガイド:2007/05/27(日) 17:02:43 ID:xylpXd20
うほっまじサンクス!

361 :名無しさん@非公式ガイド:2007/05/30(水) 16:58:42 ID:eG16/456
>>353>>355
2の話だったなら
寿命は予め種類別で設定されてて毎週減ってく
減っていく量は疲労・ストレス・その週何をしたかで決まる
疲労やストレスが低い方が寿命が減りにくい
トレーニングもしょぼい方が減りにくい
疲労・ストレスが0で休養しても最低1は減る
寿命をストップさせる裏技もある

362 :名無しさん@非公式ガイド:2007/05/30(水) 17:01:15 ID:V7cIGJga
>>361
君は何か壮大な勘違いをしているな

363 :名無しさん@非公式ガイド:2007/05/30(水) 17:02:28 ID:6pFZTVhv
CDから再生するとその種別ごとの値に多少誤差が出ることがある

364 :名無しさん@非公式ガイド:2007/05/30(水) 17:04:34 ID:5XtZVwA6
>>361
同種族でも再生するCDでステータスがちょっと違うから
それをコントロールできないかと言う話だとオモ

365 :名無しさん@非公式ガイド:2007/05/31(木) 14:11:22 ID:KqDvXFbi
再生するCDによって違うのはステータスと技だけで成長性や寿命は変わらないよ
しかもCDの種類でステータスが変わるんじゃなくて何かの法則で予め用意されてるパターン2、3この中からそれが選択されるだけ
例えばビンチョーなら
ライフ171ちから184かしこさ192命中150回避196丈夫さ111(炎の川修得)

ライフ174ちから154かしこさ229命中154回避177丈夫さ114(技初期)
のどちらかしか出ない

366 :名無しさん@非公式ガイド:2007/05/31(木) 14:18:10 ID:sv7YJzwy
例えがレアモンじゃなくてフツモンだったらよかったのにな

367 :名無しさん@非公式ガイド:2007/05/31(木) 15:20:37 ID:h6/iLlOS
寿命は間違いなく変化しまくってるけど成長適正は変わるんだっけ。
移動速度やガッツ回復速度も気になるな。

368 :名無しさん@非公式ガイド:2007/05/31(木) 16:26:03 ID:MhrWsikX
>>365
ビンチョーとかのレアモンはそうだけどさ、他の一般モンスターはそうとは限らないじゃん。


寿命は基本値±20週を軽く越えるのをエミュで確認したけれど、
成長適正や移動速度、ガッツ回復速度が変化したって話は聞かないな。

既存CDと時間を合わせてCDを作って、寿命とかがそれと関係あるか調べればいいのかな。

369 :名無しさん@非公式ガイド:2007/05/31(木) 17:29:00 ID:KqDvXFbi
ごめん全然間違ってた
寿命変わります
あとパラメータのタイプももっと多いモンスターもいるみたい
でもCDを読みこんでからそれを元にデータを作成するのでは無く
予め用意されているデータをCDの内容によって選択するのは確かです
ガッツ回復、移動速度はキャラで完全固定の模様
成長適正も固定っぽいけどもし変わったとしても微々たるもの
得意トレーニングが変わったり極端な変動は無いみたいです
結局のところモンスターのデータは全てインプットされているものだからCDがどうこうで操れるものではありません

370 :名無しさん@非公式ガイド:2007/05/31(木) 20:19:15 ID:sv7YJzwy
寿命900週とかとんでもないモンスターを再生するんじゃなくて
幅が300〜350週だったら寿命350週でなおかつ初期値が高い(技覚えてる)
ってのを生み出そうってことじゃないのか?

371 :名無しさん@非公式ガイド:2007/05/31(木) 20:27:40 ID:UMPIi+Pu
短命早熟タイプで、技や寿命のアドバンテージがあるのは大きいからなぁ

372 :名無しさん@非公式ガイド:2007/05/31(木) 23:54:13 ID:47u8iFa7
寿命をコントロール……というよりも固定で生ませることが
可能っつーことを想定したとして、

それを検証するのに同じモンスターを何体育てろと言うのか
例えば+5〜+10程度寿命が変動したとしても、ストレス値や
計算間違いでいくらでも誤差が出てしまう

流石に+30とかだったら希少価値あるかもしれんけど、
一体一体出現させて検証するのも面倒だし、時間の浪費が凄まじすぎる
合体させたら寿命は固定されるし、おまけにレアは元々固定寿命だ
少なくとも検証するだけの価値があるかと言われたら微妙すぎるよ

373 :名無しさん@非公式ガイド:2007/05/31(木) 23:58:37 ID:BVW/JFt7
イメージ作成→再生→セーブ→メモカ覗く
これは間違いなくやる価値無し

374 :名無しさん@非公式ガイド:2007/06/01(金) 02:49:42 ID:ZdH2usTj
寿命なんかどうこう言ったって対戦相手がバナナMAXだったらその時点で終わりだってのに
頑張って育てた自分がアホみたいだぞ

375 :名無しさん@非公式ガイド:2007/06/01(金) 17:07:53 ID:/y8UlSs5
普通そんなハンデのあるバトルしねーよwwww

376 :名無しさん@非公式ガイド:2007/06/01(金) 17:12:48 ID:a9LWcqAc
>>374
まるでバナナ育成が頑張ってないみたいな言い草だな

377 :名無しさん@非公式ガイド:2007/06/01(金) 17:24:20 ID:/M8xOi+V
>>374に友達いないのはわかった

378 :名無しさん@非公式ガイド:2007/06/01(金) 21:31:31 ID:V8HaNyll
初めてきたけど、すごいな
感動した

379 :名無しさん@非公式ガイド:2007/06/01(金) 21:48:40 ID:1grZ9v78
>>373
ここは一種の解析を主体としたスレッドなんだから、
そうした手法はむしろ積極的に活用するべきじゃないか?

380 :名無しさん@非公式ガイド:2007/06/01(金) 21:51:02 ID:C2D7SuiD
手法云々で無く
手間の割りに恩恵が少ないと言っている

381 :名無しさん@非公式ガイド:2007/06/01(金) 21:56:54 ID:a9LWcqAc
むしろ寿命より初期状態変化に特殊なものがついてるほうが利用価値あるよな。
たとえばガリに集中がついてるとかそういうの。

382 :名無しさん@非公式ガイド:2007/06/01(金) 23:53:03 ID:mOvBfHCN
バグーじゃなくてバクーな

383 :名無しさん@非公式ガイド:2007/06/02(土) 14:46:28 ID:pA1VCXRG
初期状態変化ついてるのってレアモン以外にいるの?

384 :名無しさん@非公式ガイド:2007/06/02(土) 14:50:25 ID:ruSSTLse
CD再生したやつ全部を分析したことないからわからんな
別にあっても不思議じゃないと思うのだが

385 :名無しさん@非公式ガイド:2007/06/02(土) 18:27:14 ID:DiucZpgA
無くても不思議じゃないからな
あると確定してから本格的に調査したほうがいいな

386 :名無しさん@非公式ガイド:2007/06/05(火) 22:18:36 ID:G21hsL+k
>>356
亀だが超絶に乙!

ところでMF1のレアモンイメージとか置いてるサイトとかないのかな?

387 :名無しさん@非公式ガイド:2007/06/06(水) 00:02:48 ID:/iprMjNb
>>386
>>319

388 :名無しさん@非公式ガイド:2007/06/06(水) 00:03:53 ID:pIy2QkBl
mf1と書いてある

389 :名無しさん@非公式ガイド:2007/06/06(水) 00:07:34 ID:98qo8Stz
そもそもmf1は何も研究されてないと思う

390 :名無しさん@非公式ガイド:2007/06/06(水) 00:27:56 ID:/iprMjNb
>>388
あー、おれが悪かった

391 :名無しさん@非公式ガイド:2007/06/06(水) 00:28:13 ID:l20GuWFf
>>387
すまん、1の方だ。そこはもう知ってる

>>389
そうなのか。俺が研究してみるかな。
できるかわからないが

392 :名無しさん@非公式ガイド:2007/06/06(水) 01:58:03 ID:l20GuWFf
秒より後のファイルはどうやって作るんだ?
0,1とかの。

393 :名無しさん@非公式ガイド:2007/06/06(水) 02:08:30 ID:l20GuWFf
もしかして作れないのか?

394 :名無しさん@非公式ガイド:2007/06/06(水) 02:59:30 ID:BINEAIOw
自分が作れなかったら、作れないと結論するとかおめでたいな

395 :名無しさん@非公式ガイド:2007/06/06(水) 03:01:40 ID:l20GuWFf
教えて下さい

396 :名無しさん@非公式ガイド:2007/06/06(水) 15:57:06 ID:yqpEGTPq
>>389
上の方にレアモンが少し
フツモンも少し

ID:l20GuWFf は車に轢かれて死んじゃえ
せいぜい道を歩く時は車に気をつけるんだなwww

397 :名無しさん@非公式ガイド:2007/06/06(水) 17:21:41 ID:U0XvMxR9
通報しないけどそんなこと言っちゃだめだ

398 :名無しさん@非公式ガイド:2007/06/07(木) 01:25:57 ID:X3zNrtPP
>>319
このサイトのキンゾーDLして
BINファイルをXPのRecordNow DXでCD-Rに焼いたのだが
ウロコクサがでてきた

やり方が違うのでしょうか?
cueファイルも一緒に焼くのですか?

399 :名無しさん@非公式ガイド:2007/06/07(木) 01:47:12 ID:qGjyflN8
>>398
>>5
実機でやってんのか?

400 :名無しさん@非公式ガイド:2007/06/07(木) 01:52:16 ID:0dR8VgBo
こいつはVIPのMFスレでもしつこく出来ない出来ない言ってるやつの予感。

401 :名無しさん@非公式ガイド:2007/06/07(木) 01:53:24 ID:qGjyflN8
マジかw
ウンディーネの人か。

402 :名無しさん@非公式ガイド:2007/06/07(木) 07:59:08 ID:h+mBCAE4
>>395
xx:yy:zz は 分:秒:ナシ だ。あとは分かるな?

>>398
>>356 に焼き方も全部載ってるからそれ参照汁 pass mf2 な

403 :名無しさん@非公式ガイド:2007/06/07(木) 15:47:57 ID:SSq/LNPk
binを焼いたという発言から
こんな感じだと予想する

E:¥○○.bin
データとしてbinを焼いてしまった若気の至り

404 :398 :2007/06/07(木) 21:54:51 ID:X3zNrtPP
実機でやってます
CDManipulatorで焼こうとしたら
ドライブエラー:パラメタ設定に失敗(ドライブが対応してません)
とでます。


405 :名無しさん@非公式ガイド:2007/06/07(木) 21:56:12 ID:6mzZDtg6
ドライブが対応してません。
ドライブ買え

406 :名無しさん@非公式ガイド:2007/06/07(木) 22:12:44 ID:+jOfCYho
CreateFileBlockを使ってファイル作る方法がよくわからない・・・
>>5のサイト見ても何を入れるんだか書いてないからさっぱり

407 :名無しさん@非公式ガイド:2007/06/07(木) 23:39:46 ID:4sI155Ep
ここはメーカーのサポセンじゃねーんだよ

408 :名無しさん@非公式ガイド:2007/06/08(金) 01:07:28 ID:be08/FuB
>>229
ガリは29分だった。30分にしたらスエゾーさんが出た

409 :名無しさん@非公式ガイド:2007/06/08(金) 05:03:24 ID:be08/FuB
>>249
のブリーフマンを再生しようと思ったんですが、できません
.cueファイルの表記方法はこれで合ってますよね?
FILE "ブリーフマン.bin" BINARY
TRACK 1 AUDIO
INDEX 1 00:00:00
TRACK 2 AUDIO
INDEX 1 04:11:00

全体の時間は合ってると思います。何度も確認しました
フツモンは全部できたから、ドライブの設定ミスとかそんなのではないと思います。

何処が間違ってるのか教えて下さい。お願いしますm(_禿_)m

410 :名無しさん@非公式ガイド:2007/06/08(金) 14:09:12 ID:i2YhF8bd
焼いたCDを確認して
トラック1が251秒
総合の時間が58分26秒になってれば確かに問題ない

ガリは29分だった。30分にしたらスエゾーさんが出た
という発言から環境による誤差が生じてると見るか

411 :409:2007/06/08(金) 17:12:50 ID:AhgUx07x
ありがとうございます。
確認してみます

412 :名無しさん@非公式ガイド:2007/06/09(土) 03:19:03 ID:yOR9L2Fg
俺が見た感じ、>>409 のデーターでCDを焼くと

track 1 が 4分11秒のデーターで
track 2 が 54分13秒のデーターだな

……逆じゃね? 最後のtrackが4分11秒であるべきじゃねーの?

413 :名無しさん@非公式ガイド:2007/06/09(土) 16:21:37 ID:PYgZIB4K
最後のトラックに指定する奴はMF2だよ
MF1は最初のトラックだった

ちなみにMF3以降は解ってない
とりあえず全部のトラック合わせとけばおkというのは解ってる

414 :名無しさん@非公式ガイド:2007/06/11(月) 16:17:54 ID:Xx+90vpJ
最後のトラックを指定通りの秒数で無音ファイル作り、全体の秒数を調整するための無音ファイルをもう一つ作ってその二つで焼いたらCD再生したけど失敗しました。
全体の秒数あわせは無音ファイルじゃ駄目なんすか……

415 :名無しさん@非公式ガイド:2007/06/11(月) 16:20:57 ID:NPwTeqiu
CDまにゅぴれーたの表示を合わせるだけなのに
ここまで失敗するものなのかな

416 :名無しさん@非公式ガイド:2007/06/12(火) 09:19:04 ID:NFinbY9g
rar,binファイルとか俺には高等過ぎる
レアモンみたいに最後のトラックと秒数指定だけ書いて貰えたらありがたいのだが…

417 :名無しさん@非公式ガイド:2007/06/12(火) 13:34:32 ID:fpRDnI+Q
調べもしない馬鹿は自分でやれ

418 :名無しさん@非公式ガイド:2007/06/12(火) 14:28:55 ID:HZ473SKh
まぁレアモンから簡単に作れるから要らんよな・・・常考

419 :へんなひと:2007/06/16(土) 11:56:28 ID:qTXG0Nqn
PS版のごーすとのつくりかた
教えてください

420 :へんなひと:2007/06/16(土) 11:57:52 ID:qTXG0Nqn
ゴーストの作り方知ってるひと
わかりやすくおしえて

421 :名無しさん@非公式ガイド:2007/06/16(土) 12:08:12 ID:v3ILHI3E
へんなひとには教えてあげません

422 :名無しさん@非公式ガイド:2007/06/16(土) 12:08:13 ID:VqEc4nHL
変態には教えたくありません><

423 :名無しさん@非公式ガイド:2007/06/21(木) 01:06:02 ID:D2k2hlf1
このスレ初めて来たんだけど感動したよ。
解析してくれた人たち超乙

424 :名無しさん@非公式ガイド:2007/06/21(木) 04:25:36 ID:h8+qVxuI
>>5で???になってるモンスター
マジンバジャール、ディスクナイトン、ラクガキモノは石版再生
ジェントルはポケステで手に入れたアイテムから再生
みたいだけど、これらのモンスターは
元々、再生できるCDがない=CDから再生不可能って事なんだろうか?

425 :名無しさん@非公式ガイド:2007/06/21(木) 04:58:11 ID:+mzTTWSF
そういう事ですね。
もしかしたら、再生できるデータを作り出すことができるのかもしれないけど
条件が全く不明で他のレアモンみたいに再生できるCDも無い訳なんで解析も多分不可能。

426 :名無しさん@非公式ガイド:2007/06/22(金) 22:18:19 ID:QIopFLQc
今更だけど>>408はもしかして30分のwavファイルでやったのかな?
>>229は2トラックの合計が30分でガリが出るってことなんだ
この方法ですると1トラックで作ったイメージと1分ずれる結果になる
>>229では31分でスエゾーが出る

427 :名無しさん@非公式ガイド:2007/07/08(日) 16:01:01 ID:d+5v2lpW
MF1
セイラー
img 640,814,160Byte
TRACK 1 AUDIO
INDEX 1 00:00:00
TRACK 2 AUDIO
INDEX 0 22:38:57
INDEX 1 22:41:57
TRACK 3 AUDIO
INDEX 0 56:28:52
INDEX 1 56:30:52

428 :名無しさん@非公式ガイド:2007/07/08(日) 17:35:29 ID:AMb4B2We
確認してないけど乙!

429 :名無しさん@非公式ガイド:2007/07/10(火) 21:50:15 ID:0w9x2tvR
あげ

430 :名無しさん@非公式ガイド:2007/07/19(木) 17:26:06 ID:uYqsbSSz
定期age

431 :名無しさん@非公式ガイド:2007/07/20(金) 18:41:04 ID:Sk+rCZ3C
ムー 460 14:12:03 でニューボトルが出たけどなぜ?

432 :名無しさん@非公式ガイド:2007/07/20(金) 19:44:43 ID:3CFeDsdj
420が正しい

433 :名無しさん@非公式ガイド:2007/07/20(金) 20:00:39 ID:Sk+rCZ3C
どうも!

434 :名無しさん@非公式ガイド:2007/07/21(土) 07:07:26 ID:WXxL+erk
これ見れないんだけどなんで?
http://up.viploader.net/src/viploader21888.rar.html


435 :名無しさん@非公式ガイド:2007/07/21(土) 11:42:34 ID:YBZQtZLK
>>434
>>356

436 :名無しさん@非公式ガイド:2007/07/21(土) 14:08:17 ID:mDnmPy4U
ありがとうございます

437 :名無しさん@非公式ガイド:2007/07/21(土) 15:35:03 ID:2UnhVW6Y
キンゾーってもともと再生不可なのに作れるって事はラクガキモノとかも可能?
カスミ、トルネード、トキビトのトラック1だけじゃない出し方知ってるひと
教えてください!あと、一通りの純血知ってたら教えてください

438 :名無しさん@非公式ガイド:2007/07/21(土) 15:42:04 ID:U7WDopha
>>437
m9(^Д^)プギャー
キンゾーは元々MF2のサントラで再生できるがな

後は自分で考えろカス

439 :名無しさん@非公式ガイド:2007/07/21(土) 15:46:41 ID:2UnhVW6Y
考えて出来ないから聞いたんですけど・・・。親切なかた教えてください

440 :名無しさん@非公式ガイド:2007/07/21(土) 15:48:17 ID:aevFHE3y
小中高校の夏休みって今日からだっけ

>>439
どういう風に考えてどういう結論に至ったか書いてみて

441 :名無しさん@非公式ガイド:2007/07/21(土) 15:54:51 ID:2UnhVW6Y
自信満々でわざわざ(無駄に)長文書いたのに、前スレ読まず撃沈した14です。

もしお時間よろしければ現行本スレ(?)Part19の14にお目通しお願いします。
バイト数で指定するってのは、結構自信が…いやこの際もう、何も言うまい

一応コピペしときますと
トキビトがデータディスクで1トラックなため

>CreateFileBlockで419,307,504バイトのファイルを作り
>CUEファイルは1トラック目を0:00:00で行けました。

あと新たにジンジンジングルベル(ニューボトル)
150,379,824バイトで最後のトラックを10:32:62
こんな感じで。
TRACK 01 AUDIO
INDEX 01 00:00:00
TRACK 02 AUDIO
INDEX 01 10:32:62

これで、秒数とか気にせずに確実に再生できるはずです。
が、ご迷惑おかけしましたので永久にROMります
すいません

これでやってうまくいきませんでした


442 :名無しさん@非公式ガイド:2007/07/21(土) 15:58:28 ID:gNpW9rt8
撃沈した14の事は忘れろ

443 :名無しさん@非公式ガイド:2007/07/21(土) 16:00:23 ID:2UnhVW6Y
あ、はい、忘れます。

444 :名無しさん@非公式ガイド:2007/07/21(土) 16:09:17 ID:gNpW9rt8
>キンゾー
CDからも出る
>ラクガキモノ
出るCDが発見されてない
>カスミ、トルネード、トキビトのトラック1だけじゃない出し方
こいつらが出るCDはそんなには確認されてない
>一通りの純血
このスレを全部読め

1.このスレで出てるレアは偶然出てる訳じゃない
2.レアCDの存在が確認されてる奴しか出せない
3.レアCDを元に作っている

445 :名無しさん@非公式ガイド:2007/07/21(土) 16:23:04 ID:2UnhVW6Y
だからキンゾー は出てラクガキモノは出ないんですね。
カスミ、トルネード、トキビトはあきらめます。
一通りの純血はこのスレを全部読んで
http://up.viploader.net/src/viploader21888.rar.html
に行けないのでヒノトリとジョーカーとモックの純血が書いてなかったです。
この3体は知りたいです。
レアCDを元に作っているんですね。
でもさっき適当に作ったCDからニューボトルでました。


446 :名無しさん@非公式ガイド:2007/07/21(土) 16:24:12 ID:7oflmV/R
純血欲しかったら同種のレアモン二匹合体させればいいじゃないか

447 :名無しさん@非公式ガイド:2007/07/21(土) 16:32:26 ID:2UnhVW6Y
合体だとCD再生時約寿命+20されないのでなるべくCDで作りたいのです

448 :名無しさん@非公式ガイド:2007/07/21(土) 17:03:32 ID:U7WDopha
>>447
勘違い乙
ttp://www.wikihouse.com/mfvip/index.php?manual#vd47ea18

単に寿命が長いモンスターを育てたきゃ、レアモンなり長寿種族なりを育てればよろし

449 :名無しさん@非公式ガイド:2007/07/21(土) 19:31:24 ID:oG/TxN5k
ありがとうございます

450 :名無しさん@非公式ガイド:2007/07/21(土) 19:54:37 ID:oG/TxN5k
第02回大会のやまもとジョニこ(イワムシ。通常320週。)は
352週生きられ+32週で、やはりCD再生時寿命伸びるのでは?

451 :名無しさん@非公式ガイド:2007/07/21(土) 19:55:51 ID:gNpW9rt8
じょにふぁー!!!

452 :名無しさん@非公式ガイド:2007/07/21(土) 23:48:35 ID:bDHE2Y3M
あれを読んでそんな疑問を持つなんて

453 :名無しさん@非公式ガイド:2007/07/23(月) 11:31:23 ID:8M8w0sxG
>>450
節穴乙

454 :名無しさん@非公式ガイド:2007/07/26(木) 18:29:35 ID:Dgr5c5Em
2を買ってみようと思うんだが、2はモンスター図鑑とかある?

455 :名無しさん@非公式ガイド:2007/07/27(金) 05:42:19 ID:RRT8P1gm
aruyo

456 :名無しさん@非公式ガイド:2007/07/27(金) 06:33:32 ID:r1S6gNW+
モンスターカードが今の図鑑に相当する
ただし、再生しただけでは登録されないから連れて帰らないとダメ

457 :名無しさん@非公式ガイド:2007/07/27(金) 13:10:51 ID:8T2SIWjp
ヒノトリのCD−R知ってる人いるかにゃ?

458 :名無しさん@非公式ガイド:2007/07/27(金) 13:11:59 ID:rCQHNfie
>>457
日本語でおk

459 :名無しさん@非公式ガイド:2007/07/27(金) 13:16:42 ID:8T2SIWjp
最後の指定秒数と総合時間を教えて欲しいなあ

460 :名無しさん@非公式ガイド:2007/07/27(金) 13:19:18 ID:bNBuhyOA
このスレでその質問はないわ
ビンチョーから作るなり、自分で解析するなりしろ

461 :名無しさん@非公式ガイド:2007/07/27(金) 13:19:43 ID:rCQHNfie
まとめサイトのビンチョーじゃダメなん?
ビンチョー二匹合体させてもいいと思うんだけど

462 :名無しさん@非公式ガイド:2007/07/27(金) 13:23:42 ID:8T2SIWjp
合体は空きないんで無理なんだよね
自分で解析出来たらここで聞く必要ないんじゃない?

463 :名無しさん@非公式ガイド:2007/07/27(金) 13:35:07 ID:bNBuhyOA
>>23-25

464 :名無しさん@非公式ガイド:2007/07/27(金) 13:55:07 ID:8T2SIWjp
そこよく読んでなかった…
どうもありがとう!
自分で頑張ってみるよ

465 :名無しさん@非公式ガイド:2007/07/28(土) 16:49:07 ID:3ERIeVU+
【速報】日本ハム球団のエース、ダルビッシュ投手が大麻所持で逮捕
http://ex20.2ch.net/test/read.cgi/base/1185599266/

466 :名無しさん@そうだ選挙に行こう:2007/07/29(日) 07:07:23 ID:JxK76AKg
何度か話題に出てた事だけど、ガッツ回復と移動速度はディスク毎に本当に差が出ないのかな
図鑑置いてるサイト(下記参照)のだとブラッディJはガッツ回復が13になってるが、実際にメモリーエディタで中見てみると14だった。
サイトの方が間違ってたというのであればそれで構わないんだが、何となく気になってね。

本ヌレのテンプレにもあるここの図鑑144番↓
ttp://f37.aaa.livedoor.jp/~sinadqn/menu.html

ちなみにブラッディJは>>347のイメージから再生した。

467 :名無しさん@非公式ガイド:2007/07/29(日) 07:28:29 ID:2UfVQlbb
>>466
一応レアモンCD置場のステータス表はG回復14になってるけどね
ttp://iminull.zouri.jp/monster/list/rare.html

まさかCD再生での隠しステータスに個体差があるとは思えないけどなぁ
最初から変わった技を習得しているモンスター同様、再生条件があらかじめ定められているでしょ
設定ミスでどこかにハピみたいな異常モンが紛れている可能性も否めないけど、
それならMF2マニアが発売した段階で見つかっていてもおかしくないはず

468 :名無しさん@そうだ選挙に行こう:2007/07/29(日) 08:10:41 ID:PJkXX5dr
移動速度のパラメータってどこかに格納されてる?

469 :名無しさん@そうだ選挙に行こう:2007/07/29(日) 09:34:08 ID:EflwwOqK
ガッツ回復の1つ手前
00=E 04=A

470 :名無しさん@そうだ選挙に行こう:2007/07/29(日) 11:57:46 ID:0yiU7DuG
レアモンはそもそも能力を設定すらされてない。
名前とサブが違うだけですべて純血種と同じで
再生された後CDの補正がかかって適正などが変更される。

それとCD補正もあらかじめ何種類かすでに設定されていて
開発者もびっくり!なんてわけわからない補正は絶対出ない。

471 :名無しさん@非公式ガイド:2007/08/01(水) 00:24:53 ID:TSkCaJsH
とりあえず、ガッツ回復、移動力、ヨイワル度の初期値、この3つに関してはどのCDから再生しても絶対というレベルで変化無しの一定だという事は言える
にしてもヨイワル度を管理してるパラメータが3箇所に分散してるのが気になるわ
アイテムを与えて変化するのはそのうち1つだけなんだけどね

残り2つのうちどちらか・・・あるいはその両方が初期値(種族値?)って事なんだろうけど正しく判断が付かない状態

472 :名無しさん@非公式ガイド:2007/08/09(木) 20:18:03 ID:qKo807P7
age

473 :名無しさん@非公式ガイド:2007/08/22(水) 12:59:20 ID:XzEUrOOl
>>356
もうなくなってたorz
どこかに保存してあるサイトもないか・・・

474 :名無しさん@非公式ガイド:2007/08/22(水) 20:10:19 ID:A0q3xuws
もうなくなってたって3ヶ月も前のファイルなんだから当たり前だろ・・・

475 :名無しさん@非公式ガイド:2007/08/26(日) 16:59:45 ID:8xxdyHpw
>>473
再うpしといたぜ。うp主に無断でな!まさに外道
ttp://gamdev.org/up/img/10021.zip

476 :名無しさん@非公式ガイド:2007/08/28(火) 11:56:56 ID:RifRyjd4
>>475
473じゃないが、thx

477 :名無しさん@非公式ガイド:2007/08/31(金) 11:29:45 ID:A7rLDQip
>>475
ありがたや

478 :名無しさん@非公式ガイド:2007/09/10(月) 21:51:31 ID:2ULa7847
むう、epsxeで、CDROMからの読み込みだとうまく再生できない……。
ISOから読み込むと別種のモンスターが再生される。

CDROMからだと普通にドライブにレアモン出るCDを入れても基礎能力のディノになってしまう……。

479 :名無しさん@非公式ガイド:2007/09/10(月) 22:48:03 ID:aqINHp9w
確かISO駄目だった
CDに焼いた物をセットするかCDイメージをデーモン先生でまんこすれば良い
それで駄目なら設定が悪い

480 :名無しさん@非公式ガイド:2007/09/10(月) 23:55:53 ID:2ULa7847
>>479
うん、以前やったときはできたから設定の問題なんだろうけど、
CDに焼いたものとデーモンまんこがうまくいかないんだ。

ISOの方は目的のモンスターは出ないけど、きちんとCD再生されたらしいモンスター、
つまり能力が基礎値じゃないモンスターが出るんだ。

ちなみに1の方ね。

481 :名無しさん@非公式ガイド:2007/09/11(火) 18:42:37 ID:xCWxUVKy
設定の問題だって分かってるなら試行錯誤してみればいいじゃない
CDRプラグイン変えてみるとかさ

482 :480:2007/09/11(火) 23:06:18 ID:bOv+X+co
無事うまくいきました。

483 :名無しさん@非公式ガイド:2007/09/17(月) 06:53:10 ID:d0EwjuB7
あげ

484 :名無しさん@非公式ガイド:2007/09/18(火) 05:27:54 ID:XxkmSb/j
実機でやってるんだけど、レアモンCD置き場にあるのを保存してCDに焼いたらいいんだよね?

485 :名無しさん@非公式ガイド:2007/09/18(火) 08:36:17 ID:msPfrn+6
>>475のやつのお世話になってるんだけど。

 お目当ての モンスターが再生されそうな cueファイル を見つけたら
 CD Manipulator の 【イメージをCDに書き込む】を選び、
 書き込む cue-sheet の所に お目当ての cueファイル をぶち込んで下さい

ってとこまではやって、いざ焼こうとしたら
cue-sheetエラーイメージファイルが存在しません。
ってなるんだけど、これはどうしたらいいの?
実機です。

486 :名無しさん@非公式ガイド:2007/09/18(火) 09:01:37 ID:msPfrn+6
ドライブがUnknownになってるからだめってことなのかな。
もしかして、うちのパソコンじゃまにぴゅれーたー使って焼けないってこと?
ねぇーちゃんと妹はなんか焼いてたけど、確かメディアプレイヤーで焼くっていってたしorz

487 :名無しさん@非公式ガイド:2007/09/18(火) 11:18:24 ID:RrzSWw+I
レアモンCD置き場はこことは関係なく
勝手にやってることだ
あちらで質問してくれ

>>485
cueとimgファイルあるだろ
同じディレクトリに入れとく必要がある
imgが無い場合は知らん

488 :名無しさん@非公式ガイド:2007/09/18(火) 11:33:12 ID:6CQEb3/m
>>487
そうなんだ、ごめん。
cueファイルはあるけど、imgファイルは無いです(´;ω;`)
グループAでいうとテキスト一つとLZHファイル一つと後全部ceuファイルです。
間違えてcueファイルをプログラムを選択して開いちゃってわけわからなくなったから、削除してもっかい落としてもわけわからないまんまだったから自分のログオフにして管理者の方に来たら元通りになってました。
で管理者のからだとドライブがUnknownじゃ無くなったので、管理者しかドライブ使えない用になってるみたいです。
それで、cueファイルを右クリックしたらCDに送るってあったので間違ってるだろうとは思いつつもやってみたら、CDは焼けました。
なのでやっぱり焼くこと自体は出来るみたいです。中身はネンドロでしたけど。
そのimgっていうのはグループの中にあるんですか?

489 :名無しさん@非公式ガイド:2007/09/18(火) 11:42:40 ID:RrzSWw+I
そのlzhは解凍するとかなりでかいサイズのimgじゃないか?

490 :名無しさん@非公式ガイド:2007/09/18(火) 11:52:20 ID:6CQEb3/m
>>488ほんっっとうにすみません。
そゆこと詳しくなくて、グループまでたどり着いただけで解凍できてるんだと思ってましたorz
ググってみたんですが、解凍ソフトはLhacaていうのでも大丈夫ですか?

491 :名無しさん@非公式ガイド:2007/09/18(火) 12:47:33 ID:RrzSWw+I
lzh対応してればなんでもいい

492 :名無しさん@非公式ガイド:2007/09/18(火) 13:36:53 ID:6CQEb3/m
なにからなにまですみません。
imgじゃなくてbinですけどこのスレのどこかでどっちでもいいみたいなこといってたからおkとして、あとは場所変えずに説明道りしろってことですね!
なんとなく出来そうな気がしてきた。
こんないかにもスルー対象なのに相手してくれてありがd!

493 :名無しさん@非公式ガイド:2007/09/18(火) 14:09:17 ID:6CQEb3/m
おっほーー
無事セイレーンが生まれました!!
>>487-491
ほんとのほんとにありがとごぜました!

494 :名無しさん@非公式ガイド:2007/09/19(水) 01:55:59 ID:ORAcWpQ9
これRAW対応してないと無理だよね?

495 :名無しさん@非公式ガイド:2007/09/19(水) 16:01:50 ID:zVCuDqQA
RAWなんだっけ
そこまでは知らんざき

496 :名無しさん@非公式ガイド:2007/09/19(水) 16:09:35 ID:UKr18IjO
カスミ等のレアモンが作りたいのですがWAVEファイルの0:00:00が作成できません…(´・ω・`)
無音WAVEで作成しようとしているのですが…

どなたか作り方を教えてください〜(TД⊂)

497 :名無しさん@非公式ガイド:2007/09/19(水) 16:24:08 ID:zVCuDqQA
1.例えばカスミは52:31:48と書いてある
2.60分の無音WAVE作る
3.サウンドエンジンフリーなどのソフトで数値入力して選択
 (例) 52:31.48〜60:00.00
4.選択した範囲を削除する
5.長さが52:31.48になる
6.ウマー

498 :名無しさん@非公式ガイド:2007/09/19(水) 16:28:25 ID:UKr18IjO
あ、長さが52:31.48のファイルはもうあるんですよ(´・ω・`)
そのファイルの前に入れる0:00:00の長さのファイルを作成したいのですが、
どうしてもエラーが出てしまい・・・OTL

499 :名無しさん@非公式ガイド:2007/09/19(水) 16:42:49 ID:zVCuDqQA
カスミは1トラック完結
元のCDがPSのDOAで
データトラックの1トラックしかない

そこで52:31.48のファイルだけでオーディオCDを作る
全体の長さと最後のトラックの長さが同じ場合はトラックは一つでいい
多分これで出来る

500 :名無しさん@非公式ガイド:2007/09/20(木) 01:30:09 ID:rZCXznf4
返信ありがとう御座います〜
早速試してみたところ、

52:31.48のファイル1つだけをCDMを用いてCDを作成、PS2で再生したところ…
違うモンスターが出現…OTL 
やり方が間違っているのでしょうか…
やはり、『データトラックの構造』のところにBLKファイルを入れないとダメなのでしょうか?

質問ばかりで申し訳ないのですが、
BLKファイルをCDMの『データトラックの構造』というところに入れると
トラックリストにMasteringという物が出現するのですが、これは削除した方がいいのでしょうか?
削除しないとCDの容量がいっぱいになってしまうのですが…

501 :名無しさん@非公式ガイド:2007/09/20(木) 04:16:32 ID:B6C8q/Bf
>>137-139辺りにもカスミの再生に関する事書いてあるからそっちのやり方でやってみるのも手じゃないかい

502 :名無しさん@非公式ガイド:2007/09/20(木) 11:10:57 ID:rZCXznf4
>>501
読んでみました〜

自分ゲームはパソコンで起動しているんで無くてPSでやってるんですよ…OTL
なので、できることならCDMを使ってCDRに焼いてしまいたいのですが…(TД⊂)

503 :名無しさん@非公式ガイド:2007/09/20(木) 11:40:34 ID:KpoBkhLG
   「 小島よしお 」は、こうすれば人気が出る! 〜 芸人からゲイ人へ 〜

サポーターはかずに、直に競パンを履き、ビンビンに勃起した雄臭っせぇマラを、クッキリと競パンに浮かび上がらせ、
ビン勃ちの勃起マラの先端からは、ジワリと先走りの種汁を滲ませ、 競パンに種汁の染みを作り、
白目ひんむいてよだれをダラダラととめどなく垂れ流し、
恍惚の表情で「 オチンポオッパッピー! 」って言う位じゃないと芸能界じゃ生き残れないよ。
オチンポオッパッピー!のあとにすぐ射精したら超人気でるよ。

 〇∧〃 でもそんなの関係ねぇ!
 / >   そんなの関係ねぇ!
 <ω\


  〇/ はい!
 /|    オチンポオッパッピー!!
 /ト ・。.


 ∧_∧
( ;´Д`) ああぁっぁぁああぁあっ    
人 Y /      チンポいいッ!チンポ!  
( ヽωつ ο°o。 
(_)_)


504 :名無しさん@非公式ガイド:2007/09/20(木) 14:32:48 ID:rZCXznf4
>>502
追記

自分のCD作成方法としては、
@waveファイル、BLKファイルを無音wave、CreateFileBlockなどを使って作る。
ACDMを起動してデータトラックの構造のところにBLKファイルを、
 トラックリストのところに52:31.48のwaveファイルを入れる。
BCD作成

っといった感じなんですが…何か間違っているのでしょうか…OTL

505 :名無しさん@非公式ガイド:2007/09/20(木) 16:28:50 ID:UChZct8O
オーディオだと言っている

506 :名無しさん@非公式ガイド:2007/09/20(木) 20:53:13 ID:B6C8q/Bf
>>137-139のやり方で作ったファイルCD-Rに焼けば普通にカスミ再生できるよ?

507 :名無しさん@非公式ガイド:2007/09/20(木) 20:54:21 ID:mUh6xXuI
無音waveって、一つの上限秒ってある?
2時間前から4000秒作ってて、いまだに完成しないんだけどorz

508 :名無しさん@非公式ガイド:2007/09/20(木) 20:57:59 ID:B6C8q/Bf
あまりにも長い秒数のファイル作るとえらい時間かかるお
4000秒ったら1時間以上の長さだしねぇ

509 :名無しさん@非公式ガイド:2007/09/20(木) 23:14:11 ID:yh2c3CIq
捕手

510 :名無しさん@非公式ガイド:2007/09/20(木) 23:23:23 ID:yh2c3CIq
捕手

511 :名無しさん@非公式ガイド:2007/09/21(金) 03:13:06 ID:Zu3ExNZm
>>508
そうだよね、ってか当たり前かorz
まだ出来ないし、中止も出来ないw
強制いっとくか。
d。

512 :名無しさん@非公式ガイド:2007/09/21(金) 22:38:37 ID:txvqDclg
0:00:00のようなファイルを作っても認識しなくて書き込めねぇw

513 :名無しさん@非公式ガイド:2007/09/21(金) 22:44:43 ID:UXQye81O
少し上のレスを見ろ

514 :名無しさん@非公式ガイド:2007/09/21(金) 22:57:06 ID:txvqDclg
OKブラザー、明日ブックオフ行ってくる

515 :名無しさん@非公式ガイド:2007/09/21(金) 23:43:09 ID:Ds8C+7ZS
>>511
わかりやすい秒数でいくつかファイルを作っておいて
それに調節用の細かい秒数を合わせて作るといい

516 :4000秒のファイル作ってたアホ:2007/09/23(日) 23:58:22 ID:NjHCaJ6c
毎回専用のファイル作ってたorz
なんでこんなバカみたいなことしてたんだろ。
おかけで212,219,283とか275みたいな似たようなファイルばっかしw

517 :名無しさん@非公式ガイド:2007/09/24(月) 14:25:03 ID:oIA2DOVb
このレアモンまとめで作ったミーアっの成長タイプって早熟であってる?
赤い攻略本には普通って書いてあるからどっちか迷ってる。
寿命は320週でいいんだよね。

518 :名無しさん@非公式ガイド:2007/09/24(月) 16:22:46 ID:W1rhduaT
でも結局最後のトラックに指定するファイルは
作らないといけないんだよね
普段zipにしとけばいいんだけどw

519 :名無しさん@非公式ガイド:2007/10/01(月) 05:34:49 ID:C1XRQnJS
>>242のtxtファイルをcueファイルに変換とは
どう行えばよろしいのでしょうか
テキストファイルはメモ帳でもいいですよね?

520 :名無しさん@非公式ガイド:2007/10/01(月) 06:25:47 ID:xCRxkC8I
手順の2に全て書かれてると思うんだが・・・
テキストファイルに必要事項をコピペして拡張子をtxtからcueに変えればいいだけ

521 :名無しさん@非公式ガイド:2007/10/01(月) 12:55:22 ID:C1XRQnJS
>>520
すみません。よく見たつもりだったのですが
ありがとうございます

522 :名無しさん@非公式ガイド:2007/10/04(木) 00:07:15 ID:flQeoR4Q
6年?越しで、3をゲットしたから、ここ来たんだけど、すごいなおまえらw

523 :名無しさん@非公式ガイド:2007/10/04(木) 00:20:30 ID:hv2nAtVC
ただしラグナはCDがわかっていない
モンスター甲子園のクイズの景品としか

524 :名無しさん@非公式ガイド:2007/10/05(金) 00:34:51 ID:IioiyLvx
スレ違いだが、3の体型って、2みたくバトルに影響を与えるものなのかな。
3のスレなんてないし、攻略サイトにもいまいちのってないんで分からないんだ。

131 KB
■ このスレッドは過去ログ倉庫に格納されています

★スマホ版★ 掲示板に戻る 全部 前100 次100 最新50

read.cgi ver 05.02.02 2014/06/23 Mango Mangüé ★
FOX ★ DSO(Dynamic Shared Object)